Register  ·  Log in
Forgot password?

  • Ты это обещала / Du hast es versprochen (Александра Шмидт / Alexandra Schmidt) [2012, Германия, триллер, драма, детектив, HDRip] VO

    Reply to topic
    Author Message


    Post 02-Nov-2013 10:57



    Ты это обещалаDu hast es versprochen«Two best friends from childhood are haunted by the ghosts of their past»-Страна: Германия
    Жанр: триллер, драма, детектив
    Год выпуска: 2012
    Продолжительность: 01:38:09-Перевод: Одноголосый закадровый [Хихикающий Доктор]
    Субтитры: нет
    Режиссер: Александра Шмидт / Alexandra Schmidt
    В ролях: Мина Тандер, Лаура Де Бур, Катарина Тальбах, Макс Римельт, Клеменс Шик, Алина Софи Антониадис, William Boer, Greta Oceana Dethlefs, Mia Kasalo, Tim Kirschstein, Lina Köhlert, Джессика Макинтайр-Описание: Две бывшие подруги, встретившись вновь через много лет, решили провести несколько дней на маленьком острове, где они когда-то жили. Но безмятежного отдыха не получилось - давняя трагедия, участниками и жертвами которой они когда-то были, оказывается, не забыта. И кто-то решил отомстить ее виновникам...-


    Доп. Информация

    Сценарий: Valentin Mereutza, Александра Шмидт / Alexandra Schmidt
    Продюсер: Стефан Шуберт / Stefan Schubert, Ральф Швингель / Ralph Schwingel, Озджан Йильдиз / �zcan Yildiz, Нина Боллманн / Nina Bohlmann, Катарина Дуфнер / Katharina Dufner
    Оператор: Ведиго фон Шульцендорфф / Wedigo von Schultzendorff
    Композитор: Мэриэн Люкс / Marian Lux
    Мировая премьера: 28 сентября 2012
    -Качество: HDRip
    Контейнер: AVI
    Видео: XviD, 720x304 (2.35:1), 1791 kbps, 25 fps, 0,327 bpp
    Аудио: MP3 / 2.0 / 44 kHz / 192 kbps /-

    Media Info

    Complete name : G:\
    Format : AVI
    Format/Info : Audio Video Interleave
    File size : 1.37 GiB
    Duration : 1h 38mn
    Overall bit rate : 1 993 Kbps
    Writing application : VirtualDubMod | || (build 2550/release)
    Writing library : VirtualDubMod build 2550/release
    ID : 0
    Format : MPEG-4 Visual
    Format profile : Advanced Simple@L5
    Format settings, BVOP : 1
    Format settings, QPel : No
    Format settings, GMC : No warppoints
    Format settings, Matrix : Custom
    Codec ID : XVID
    Codec ID/Hint : XviD
    Duration : 1h 38mn
    Bit rate : 1 792 Kbps
    Width : 720 pixels
    Height : 304 pixels
    Display aspect ratio : 2.35:1
    Frame rate : 25.000 fps
    Color space : YUV
    Chroma subsampling : 4:2:0
    Bit depth : 8 bits
    Scan type : Progressive
    Compression mode : Lossy
    Bits/(Pixel*Frame) : 0.327
    Stream size : 1.23 GiB (90%)
    Writing library : XviD 1.2.1 (UTC 2008-12-04)
    ID : 1
    Format : MPEG Audio
    Format version : Version 1
    Format profile : Layer 3
    Codec ID : 55
    Codec ID/Hint : MP3
    Duration : 1h 38mn
    Bit rate mode : Constant
    Bit rate : 192 Kbps
    Channel(s) : 2 channels
    Sampling rate : 44.1 KHz
    Compression mode : Lossy
    Stream size : 135 MiB (10%)
    Alignment : Split accross interleaves
    Interleave, duration : 40 ms (1.00 video frame)
    Interleave, preload duration : 500 ms

    Скриншот с названием фильма


    Download .torrent

    Download free and at maximum speed!

    How to Download? · What is a torrent? · Ratings and Limitations

    The site does not extend and does not store electronic(digital) versions of products, and only gives access to a reference catalogue created by users on torrent-files which contain only lists of the hash-sums, the earnest entreaty, with complaints(abuse) to access directly to the user. Files for an exchange on tracker are given by users of a site, and the administration does not bear the responsibility for their maintenance. The request to not fill in the files protected by copyrights, and also files of the illegal maintenance!

    [Profile] [PM]
    Display posts from previous:    
    Reply to topic

    The time now is: Today 01:54

    All times are GMT + 3 Hours

    You cannot post new topics in this forum
    You cannot reply to topics in this forum
    You cannot edit your posts in this forum
    You cannot delete your posts in this forum
    You cannot vote in polls in this forum
    You cannot attach files in this forum
    You cannot download files in this forum