Register  ·  Log in
Forgot password?

  • Ванда Невада / Wanda Nevada (Питер Фонда / Peter Fonda) [1979 г., США, мелодрама, комедия, детектив, вестерн, BDRip] DVO

    Reply to topic
    Author Message


    Post 29-Oct-2013 14:07



    -Ванда Невада / Wanda Nevada--Год выпуска: 1979
    Страна: США
    Жанр: мелодрама, комедия, детектив, вестерн-Продолжительность: 01:47:23
    Перевод: Профессиональный (двухголосый, закадровый)
    Субтитры: нет--Режиссер: Питер Фонда / Peter Fonda--В ролях:
    Питер Фонда, Брук Шилдс, Фиона Льюис, Люк Аскью, Тед Маркленд, Северн Дарден, Пол Фикс, Генри Фонда, Ларри Голден и др.
    Рассказ о бродяге по имени Бодрей Демерилл, который выигрывает в покер молодую сиротку по имени Ванда и берет ее с собой в путешествие к Большому Каньону.--Доп. информация:-- Сэмпл Рип совместим с бытовыми DVD-проигрывателями.--Качество видео: BDRip
    Формат видео: AVI
    Видео: XviD 73; 640 х 352 (16:9); ~832 kbps; 23.976 fps; 0.154 bpp
    Аудио: MPEG-1 Audio Layer 3; 48.0 KHz; 128 Kbps CBR; 2 ch (DVO)-



    Complete name : \Wanda_Nevada_(1979).BDRip.XviD.mp3_[All.Films][RG].avi
    Format : AVI
    Format/Info : Audio Video Interleave
    File size : 744 MiB
    Duration : 1h 47mn
    Overall bit rate : 969 Kbps
    Movie name : Ванда Невада / Wanda Nevada (1979) BDRip [All.Films][RG]
    Director : []
    Writing application : VirtualDubMod | || (build 2550/release)
    ID : 0
    Format : MPEG-4 Visual
    Format profile : Advanced Simple@L5
    Format settings, BVOP : 2
    Format settings, QPel : No
    Format settings, GMC : No warppoints
    Format settings, Matrix : Custom
    Codec ID : XVID
    Codec ID/Hint : XviD
    Duration : 1h 47mn
    Bit rate : 832 Kbps
    Width : 640 pixels
    Height : 352 pixels
    Display aspect ratio : 16:9
    Frame rate : 23.976 fps
    Color space : YUV
    Chroma subsampling : 4:2:0
    Bit depth : 8 bits
    Scan type : Progressive
    Compression mode : Lossy
    Bits/(Pixel*Frame) : 0.154
    Stream size : 639 MiB (86%)
    Writing library : XviD 73
    ID : 1
    Format : MPEG Audio
    Format version : Version 1
    Format profile : Layer 3
    Codec ID : 55
    Codec ID/Hint : MP3
    Duration : 1h 47mn
    Bit rate mode : Constant
    Bit rate : 128 Kbps
    Channel count : 2 channels
    Sampling rate : 48.0 KHz
    Compression mode : Lossy
    Stream size : 98.3 MiB (13%)
    Alignment : Aligned on interleaves
    Interleave, duration : 42 ms (1.00 video frame)
    Interleave, preload duration : 504 ms
    Writing library : LAME3.99r
    Encoding settings : -m s -V 4 -q 0 -lowpass 17 -b 128
    Download .torrent

    Download free and at maximum speed!

    How to Download? · What is a torrent? · Ratings and Limitations

    The site does not extend and does not store electronic(digital) versions of products, and only gives access to a reference catalogue created by users on torrent-files which contain only lists of the hash-sums, the earnest entreaty, with complaints(abuse) to access directly to the user. Files for an exchange on tracker are given by users of a site, and the administration does not bear the responsibility for their maintenance. The request to not fill in the files protected by copyrights, and also files of the illegal maintenance!

    [Profile] [PM]
    Display posts from previous:    
    Reply to topic

    The time now is: Today 07:47

    All times are GMT + 3 Hours

    You cannot post new topics in this forum
    You cannot reply to topics in this forum
    You cannot edit your posts in this forum
    You cannot delete your posts in this forum
    You cannot vote in polls in this forum
    You cannot attach files in this forum
    You cannot download files in this forum