BitTorrentTracker PerecTracker.org
BitTorrentTracker PerecTracker.org
    
Регистрация  ·  Вход
 
 · 
Забыли пароль?

  • Ванда Невада / Wanda Nevada (Питер Фонда / Peter Fonda) [1979 г., США, мелодрама, комедия, детектив, вестерн, BDRip] DVO

    Ответить на тему
     
    Автор Сообщение

    Columb

    Создавать темы 29-Окт-2013 13:07

           

    [Цитировать]

    -Ванда Невада / Wanda Nevada--Год выпуска: 1979
    Страна: США
    Жанр: мелодрама, комедия, детектив, вестерн-Продолжительность: 01:47:23
    Перевод: Профессиональный (двухголосый, закадровый)
    Субтитры: нет--Режиссер: Питер Фонда / Peter Fonda--В ролях:
    Питер Фонда, Брук Шилдс, Фиона Льюис, Люк Аскью, Тед Маркленд, Северн Дарден, Пол Фикс, Генри Фонда, Ларри Голден и др.
    --Описание:
    Рассказ о бродяге по имени Бодрей Демерилл, который выигрывает в покер молодую сиротку по имени Ванда и берет ее с собой в путешествие к Большому Каньону.--Доп. информация:-- Сэмпл Рип совместим с бытовыми DVD-проигрывателями.--Качество видео: BDRip
    Формат видео: AVI
    Видео: XviD 73; 640 х 352 (16:9); ~832 kbps; 23.976 fps; 0.154 bpp
    Аудио: MPEG-1 Audio Layer 3; 48.0 KHz; 128 Kbps CBR; 2 ch (DVO)-

    Скриншоты


    MediaInfo

    General
    Complete name : \Wanda_Nevada_(1979).BDRip.XviD.mp3_[All.Films][RG].avi
    Format : AVI
    Format/Info : Audio Video Interleave
    File size : 744 MiB
    Duration : 1h 47mn
    Overall bit rate : 969 Kbps
    Movie name : Ванда Невада / Wanda Nevada (1979) BDRip [All.Films][RG]
    Director : [rutracker.org]
    Writing application : VirtualDubMod 1.5.10.3 | www.virtualdub-fr.org || (build 2550/release)
    Video
    ID : 0
    Format : MPEG-4 Visual
    Format profile : Advanced Simple@L5
    Format settings, BVOP : 2
    Format settings, QPel : No
    Format settings, GMC : No warppoints
    Format settings, Matrix : Custom
    Codec ID : XVID
    Codec ID/Hint : XviD
    Duration : 1h 47mn
    Bit rate : 832 Kbps
    Width : 640 pixels
    Height : 352 pixels
    Display aspect ratio : 16:9
    Frame rate : 23.976 fps
    Color space : YUV
    Chroma subsampling : 4:2:0
    Bit depth : 8 bits
    Scan type : Progressive
    Compression mode : Lossy
    Bits/(Pixel*Frame) : 0.154
    Stream size : 639 MiB (86%)
    Writing library : XviD 73
    Audio
    ID : 1
    Format : MPEG Audio
    Format version : Version 1
    Format profile : Layer 3
    Codec ID : 55
    Codec ID/Hint : MP3
    Duration : 1h 47mn
    Bit rate mode : Constant
    Bit rate : 128 Kbps
    Channel count : 2 channels
    Sampling rate : 48.0 KHz
    Compression mode : Lossy
    Stream size : 98.3 MiB (13%)
    Alignment : Aligned on interleaves
    Interleave, duration : 42 ms (1.00 video frame)
    Interleave, preload duration : 504 ms
    Writing library : LAME3.99r
    Encoding settings : -m s -V 4 -q 0 -lowpass 17 -b 128
    Скачать .torrent

    Скачать торрент-файл бесплатно и на максимальной скорости!

    Как скачивать? · Что такое торрент? · Рейтинг и ограничения

    !ВНИМАНИЕ!
    Сайт не распространяет и не хранит электронные версии произведений, а занимается лишь лишь предоставлением доступа к создаваемому пользователями каталогу ссылок на торрент-файлы, которые содержат только списки хеш-сумм, убедительная просьба с жалобами обращаться напрямую к пользователю. Файлы для обмена на трекере предоставлены пользователями сайта, и администрация не несёт ответственности за их содержание. Просьба не заливать файлы, защищенные авторскими правами, а также файлы нелегального содержания!

    [Профиль] [ЛС]
    Показать сообщения:    
    Ответить на тему

    Текущее время: Сегодня, в 14:43

    Часовой пояс: GMT + 2



    Вы не можете начинать темы
    Вы не можете отвечать на сообщения
    Вы не можете редактировать свои сообщения
    Вы не можете удалять свои сообщения
    Вы не можете голосовать в опросах
    Вы не можете прикреплять файлы к сообщениям
    Вы не можете скачивать файлы