BitTorrentTracker PerecTracker.org
BitTorrentTracker PerecTracker.org
    
Регистрация  ·  Вход
 
 · 
Забыли пароль?

  • Авианосец / Flat Top (Лесли Селандер / Lesley Selander) [1952 г., США, драма, военный, BDRip] AVO (Живов) + Original

    Ответить на тему
     
    Автор Сообщение

    Columb

    Создавать темы 26-Окт-2013 15:20

           

    [Цитировать]

    АвианосецFlat Top--Год выпуска: 1952
    Страна: США-Жанр: драма, военный
    Продолжительность: 01:25:08
    Перевод: Авторский (Живов Юрий)
    Субтитры: нет-Режиссер: Лесли Селандер / Lesley Selander
    Сценарий: Стив Фишер / Steve Fisher
    Продюсер: Уолтер Мириш / Walter Mirisch, Ричард В. Хирмэнс / Richard V. Heermance
    Оператор: Гарри Ньюманн / Harry Neumann
    Композитор: Марлин Скайлз / Marlin Skiles-В ролях: Стерлинг Хейден (Cmdr. Dan Collier), Ричард Карлсон (Lt. (j.g.), Joe Rodgers), Уильям Фиппс (Red Kelley), Джон Бромфилд (Ens. Snakehips McKay), Кит Ларсен (Ens. Barney Smith / Barney Oldfield), Уильям Шэллерт (Ens. Longfellow), Тодд Карнс (Judge), Филлис Коутс (Dorothy Collier), Дэйв Уиллок (Willie), Уолтер Кой (Air Group Commander), Питер Адамс (Plane Captain, в титрах не указан), Ричард Бартлетт (Sailor, в титрах не указан)-Описание: Фильм рассказывает о захватывающих эпизодах Второй мировой войны на Тихом океане. Смертельное противостояние Японии и США началось с Перл-Харбора, когда за считанные часы американцы потеряли десятки кораблей и самолетов, сотни моряков и летчиков. Теперь настало время мести...-kinopoisk.ru: 5.571 (20)
    imdb.com: 6.40 (193)-Качество: BDRip / Flat_Top-1952-BD25
    Контейнер: AVI
    Видео: 704x512 (1.38:1), 23.976 fps, XviD build 65 ~2233 kbps avg, 0.26 bit/pixel
    Аудио: 48 kHz, AC3 Dolby Digital, 1/0 (C) ch, ~96 kbps (Rus)
    Аудио: 48 kHz, AC3 Dolby Digital, 1/0 (C) ch, ~96 kbps (Eng)-

    MediaInfo

    General
    Complete name : E:\Рипы\Flat.Top.1952.BDRip.AVO.All.Films.avi
    Format : AVI
    Format/Info : Audio Video Interleave
    File size : 1.45 GiB
    Duration : 1h 25mn
    Overall bit rate : 2 440 Kbps
    Movie name : Flat.Top.1952.BDRip.AVO.All.Films
    Director : DIABLO93
    Genre : Action
    Writing application : VirtualDubMod 1.5.10.3 | www.virtualdub-fr.org || (build 2550/release)
    Original source form/Name : Movie
    Video
    ID : 0
    Format : MPEG-4 Visual
    Format profile : Advanced Simple@L5
    Format settings, BVOP : 2
    Format settings, QPel : No
    Format settings, GMC : No warppoints
    Format settings, Matrix : Custom
    Codec ID : XVID
    Codec ID/Hint : XviD
    Duration : 1h 25mn
    Bit rate : 2 234 Kbps
    Width : 704 pixels
    Height : 512 pixels
    Display aspect ratio : 1.375
    Frame rate : 23.976 fps
    Color space : YUV
    Chroma subsampling : 4:2:0
    Bit depth : 8 bits
    Scan type : Progressive
    Compression mode : Lossy
    Bits/(Pixel*Frame) : 0.258
    Stream size : 1.33 GiB (92%)
    Writing library : XviD 65
    Audio #1
    ID : 1
    Format : AC-3
    Format/Info : Audio Coding 3
    Mode extension : CM (complete main)
    Format settings, Endianness : Big
    Codec ID : 2000
    Duration : 1h 25mn
    Bit rate mode : Constant
    Bit rate : 96.0 Kbps
    Channel(s) : 1 channel
    Channel positions : Front: C
    Sampling rate : 48.0 KHz
    Bit depth : 16 bits
    Compression mode : Lossy
    Stream size : 58.5 MiB (4%)
    Alignment : Split accross interleaves
    Interleave, duration : 42 ms (1.00 video frame)
    Interleave, preload duration : 500 ms
    Audio #2
    ID : 2
    Format : AC-3
    Format/Info : Audio Coding 3
    Mode extension : CM (complete main)
    Format settings, Endianness : Big
    Codec ID : 2000
    Duration : 1h 25mn
    Bit rate mode : Constant
    Bit rate : 96.0 Kbps
    Channel(s) : 1 channel
    Channel positions : Front: C
    Sampling rate : 48.0 KHz
    Bit depth : 16 bits
    Compression mode : Lossy
    Stream size : 58.5 MiB (4%)
    Alignment : Split accross interleaves
    Interleave, duration : 42 ms (1.00 video frame)
    Interleave, preload duration : 500 ms
    -

    Скриншоты

    Скачать .torrent

    Скачать торрент-файл бесплатно и на максимальной скорости!

    Как скачивать? · Что такое торрент? · Рейтинг и ограничения

    !ВНИМАНИЕ!
    Сайт не распространяет и не хранит электронные версии произведений, а занимается лишь лишь предоставлением доступа к создаваемому пользователями каталогу ссылок на торрент-файлы, которые содержат только списки хеш-сумм, убедительная просьба с жалобами обращаться напрямую к пользователю. Файлы для обмена на трекере предоставлены пользователями сайта, и администрация не несёт ответственности за их содержание. Просьба не заливать файлы, защищенные авторскими правами, а также файлы нелегального содержания!

    [Профиль] [ЛС]
    Показать сообщения:    
    Ответить на тему

    Текущее время: Сегодня, в 05:14

    Часовой пояс: GMT + 2



    Вы не можете начинать темы
    Вы не можете отвечать на сообщения
    Вы не можете редактировать свои сообщения
    Вы не можете удалять свои сообщения
    Вы не можете голосовать в опросах
    Вы не можете прикреплять файлы к сообщениям
    Вы не можете скачивать файлы