BitTorrentTracker PerecTracker.org
BitTorrentTracker PerecTracker.org
    
Регистрация  ·  Вход
 
 · 
Забыли пароль?

  • Привычка расставаться (Екатерина Телегина) [2013, Комедия, мелодрама, WEB-DLRip]

    Ответить на тему
     
    Автор Сообщение

    Columb

    Создавать темы 26-Окт-2013 15:14

           

    [Цитировать]

    Привычка расставаться«Как найти свою любовь?»Жанр: Комедия, мелодрама
    Год выпуска: 2013
    Продолжительность: 01:19:26
    Режиссёр: Екатерина Телегина
    В ролях: Алёна Константинова, Данила Козловский, Елизавета Боярская, Полина Филоненко, Александра Тюфтей, Александр Петров, Алексей Филимонов, Петр Рыков, Карло Лаванья, Пётр Фёдоров...
    Описание: История о девушке, которая не может устроить свою личную жизнь. В поисках ответа, почему все ее отношения не сложились, она решает встретиться со всеми своими бывшими и спросить у них, что они думают по этому поводу. Найдет ли она ответ на свой вопрос? Нет. Найдет ли она свою любовь? Конечно, да!


    Сэмпл: http://multi-up.com/916712
    Качество видео: WEB-DLRip (Исх. WEB-DLRip 720p)
    Формат видео: AVI
    Видео: 720x384 (1.88:1), 25 fps, XviD build 50 ~2162 kbps avg, 0.31 bit/pixel
    Аудио: 48 kHz, AC3 Dolby Digital, 3/2 (L,C,R,l,r) + LFE ch, ~448.00 kbps avg

    MediaInfo

    Общее
    Полное имя : S:\Фильмы\Привычка расставаться. 2013. WEB-DLRip. 1.45 (AleksSin).avi
    Формат : AVI
    Формат/Информация : Audio Video Interleave
    Размер файла : 1,45 Гбайт
    Продолжительность : 1 ч. 19 м.
    Общий поток : 2620 Кбит/сек
    Программа кодирования : VirtualDubMod 1.5.10.3 | www.virtualdub-fr.org || (build 2550/release)
    Библиотека кодирования : VirtualDubMod build 2550/release
    Видео
    Идентификатор : 0
    Формат : MPEG-4 Visual
    Профиль формата : Advanced Simple@L5
    Параметр BVOP формата : 2
    Параметр QPel формата : Нет
    Параметр GMC формата : Без точки перехода
    Параметр матрицы формата : Default (H.263)
    Идентификатор кодека : XVID
    Идентификатор кодека/Подсказка : XviD
    Продолжительность : 1 ч. 19 м.
    Битрейт : 2162 Кбит/сек
    Ширина : 720 пикс.
    Высота : 384 пикс.
    Соотношение сторон : 1,875
    Частота кадров : 25,000 кадр/сек
    Цветовое пространство : YUV
    Подвыборка цветности : 4:2:0
    Битовая глубина : 8 бит
    Тип развёртки : Прогрессивная
    Метод сжатия : С потерями
    Бит/(Пиксели*Кадры) : 0.313
    Размер потока : 1,20 Гбайт (83%)
    Библиотека кодирования : XviD 1.2.1 (UTC 2008-12-04)
    Аудио
    Идентификатор : 1
    Формат : AC-3
    Формат/Информация : Audio Coding 3
    Расширение режима : CM (complete main)
    Идентификатор кодека : 2000
    Продолжительность : 1 ч. 19 м.
    Вид битрейта : Постоянный
    Битрейт : 448 Кбит/сек
    Каналы : 6 каналов
    Расположение каналов : Front: L C R, Side: L R, LFE
    Частота : 48,0 КГц
    Битовая глубина : 16 бит
    Метод сжатия : С потерями
    Размер потока : 255 Мбайт (17%)
    Выравнивание : Разделение по промежуткам
    Продолжительность промежутка : 40 мс. (1,00 видеокадр)
    Время предзагрузки промежутка : 500 ms

    Скриншот c названием фильма

    Скриншоты

    Скачать .torrent

    Скачать торрент-файл бесплатно и на максимальной скорости!

    Как скачивать? · Что такое торрент? · Рейтинг и ограничения

    !ВНИМАНИЕ!
    Сайт не распространяет и не хранит электронные версии произведений, а занимается лишь лишь предоставлением доступа к создаваемому пользователями каталогу ссылок на торрент-файлы, которые содержат только списки хеш-сумм, убедительная просьба с жалобами обращаться напрямую к пользователю. Файлы для обмена на трекере предоставлены пользователями сайта, и администрация не несёт ответственности за их содержание. Просьба не заливать файлы, защищенные авторскими правами, а также файлы нелегального содержания!

    [Профиль] [ЛС]

    -746

    Создавать темы 12-Янв-2014 19:09 (спустя 2 месяца 17 дней)

           

    Топик был перенесен из форума Отечественные Фильмы (Новинки) в форум Наше кино

    -sasha2006 

    _________________
    Как бы ты высоко не летал, не забывай, с кем ты ползал..
     
    Показать сообщения:    
    Ответить на тему

    Текущее время: Сегодня, в 00:26

    Часовой пояс: GMT + 2



    Вы не можете начинать темы
    Вы не можете отвечать на сообщения
    Вы не можете редактировать свои сообщения
    Вы не можете удалять свои сообщения
    Вы не можете голосовать в опросах
    Вы не можете прикреплять файлы к сообщениям
    Вы не можете скачивать файлы