BitTorrentTracker PerecTracker.org
BitTorrentTracker PerecTracker.org
    
Регистрация  ·  Вход
 
 · 
Забыли пароль?

  • Хлеб и соль / Хліб і сіль (Николай Макаренко, Григорий Кохан) [1970, драма, исторический, TVRip] Orig (Ukr) + Sub rus kingsun

    Ответить на тему
     
    Автор Сообщение

    Columb

    Создавать темы 26-Окт-2013 15:10

           

    [Цитировать]

    Хлеб и соль / Хліб і сіль
    Жанр: драма, исторический
    Год выпуска: 1970
    Продолжительность: 01:20:56
    Язык оригинала: украинский
    Перевод: русский (субтитры)-Режиссёр: Николай Макаренко, Григорий Кохан-В ролях: Владимир Олексеенко, Лидия Яремчук, Майя Булгакова, Иван Гаврилюк, Раиса Недашковская, Анатолий Папанов, Сергей Полежаев, Александр Сердюк, Анатолий Барчук, Виктор Полищук, Валентина Ивашева, Лидия Яремчук, Алим Федоринский, Владимир Антонов, Иван Симоненко-Описание:
    По мотивам одноименного романа Михаила Стельмаха.
    1905 год. Многие крестьяне Прикарпатья в поисках лучшей доли покидают родные места и едут осваивать земли Сибири. Но оставшиеся начинают борьбу за свои права на землю...
    Михаил Афанасьевич Стельмах (укр. Михайло Панасович Стельмах; 1912—1983) — советский украинский писатель и драматург, лауреат Сталинской премии (1951), Герой Социалистического Труда (1972). Академик АН УССР (1978). Литературной деятельностью занимается с 1936 года. Автор трилогии романов: «Большая родня» (1950), «Кровь людская — не водица» (1957), «Хлеб и соль» (1959). Эта кинотрилогия была экранизирована на киностудии им. А. Довженко (фильмы «Кровь людская — не водица» (1960), «Дмитро Горицвит» (1961), «Люди не все знают» (1963)). Он автор романов «Правда и кривда» (1961), «Дума про тебя» (1969), детских повестей «Гуси-лебеди летят» (1964), «Щедрый вечер» (1967). По сценарию Михаила Стельмаха также были сняты фильмы: «Над Черемошем» (1954, режиссер Г.Т. Крикун), «Живи, Украина!» (1958), «Хлеб и соль» (1970), «Гуси-лебеди летят» (1974), «Щедрый вечер» (1976).оман `Хлеб и соль` - первая книга его знаменитой трилогии, запечатлевшей важнейшие этапы жизни украинского села первой половины ХХ века. В романе отражены революционные события 1905-1907 гг.-Доп. информация:
    Субтитры - kingsun.-Качество видео: TVRip
    Формат видео: AVI
    Видео: 640x336 (1.90:1), 25 fps, XviD Final 1.0.3 (build 37) ~1065 kbps avg, 0.20 bit/pixel
    Аудио: 44.100 kHz, MPEG Layer 3, 2 ch, ~128.00 kbps avg
    Субтитры: русский (внешние, .SRT)

    MediaInfo

    Format : AVI
    Format/Info : Audio Video Interleave
    File size : 697 MiB
    Duration : 1h 20mn
    Overall bit rate : 1 204 Kbps
    Writing application : VirtualDubMod 1.5.10.2 (build 2540/release)
    Writing library : VirtualDubMod build 2540/release
    Video
    ID : 0
    Format : MPEG-4 Visual
    Format profile : Simple@L3
    Format settings, BVOP : 1
    Format settings, QPel : No
    Format settings, GMC : No warppoints
    Format settings, Matrix : Custom
    Muxing mode : Packed bitstream
    Codec ID : XVID
    Codec ID/Hint : XviD
    Duration : 1h 20mn
    Bit rate : 1 066 Kbps
    Width : 640 pixels
    Height : 336 pixels
    Display aspect ratio : 1.905
    Frame rate : 25.000 fps
    Color space : YUV
    Chroma subsampling : 4:2:0
    Bit depth : 8 bits
    Scan type : Progressive
    Compression mode : Lossy
    Bits/(Pixel*Frame) : 0.198
    Stream size : 617 MiB (89%)
    Writing library : XviD 1.0.3 (UTC 2004-12-20)
    Audio
    ID : 1
    Format : MPEG Audio
    Format version : Version 1
    Format profile : Layer 3
    Mode : Joint stereo
    Codec ID : 55
    Codec ID/Hint : MP3
    Duration : 1h 20mn
    Bit rate mode : Constant
    Bit rate : 128 Kbps
    Channel(s) : 2 channels
    Sampling rate : 44.1 KHz
    Compression mode : Lossy
    Stream size : 74.1 MiB (11%)
    Alignment : Split accross interleaves
    Interleave, duration : 40 ms (1.00 video frame)
    Interleave, preload duration : 500 ms

    Скриншот с названием фильма

    Скриншоты

    Фрагмент субтитров

    1
    00:00:10,493 --> 00:00:11,451
    -Здравствуйте!
    2
    00:00:36,192 --> 00:00:37,942
    -Прощайте, тётка Ефросинья.
    3
    00:00:38,474 --> 00:00:38,943
    -Мама кланяется вам хлебом.
    4
    00:00:40,500 --> 00:00:42,552
    -Спасибо Кристина.
    5
    00:00:58,707 --> 00:01:04,685
    -Сыночек родненький, береги себя,
    напиши, как приедешь.
    6
    00:01:13,523 --> 00:01:19,460
    -Прощайте люди, дай вам бог счастья.
    7
    00:02:35,789 --> 00:02:40,827
    -Деточки мои родненькие, куда же вы едите?
    8
    00:02:46,352 --> 00:02:49,559
    -Когда же вы вернётесь?
    9
    00:03:13,990 --> 00:03:17,611
    ХЛЕБ И СОЛЬ
    10
    00:03:33,286 --> 00:03:34,761
    -Смотрите, что девушка вытворяет.
    11
    00:03:36,163 --> 00:03:37,962
    -Да, норовистая видать.
    12
    00:03:43,795 --> 00:03:46,020
    -Кристина, что ты делаешь?
    13
    00:03:46,020 --> 00:03:47,593
    -Люди же смотрят.
    14
    00:03:49,221 --> 00:03:51,643
    -А ты не смотри, а то напророчишь.
    15
    00:03:54,706 --> 00:03:57,869
    -Кристина, возьми нас с собой.
    16
    00:04:11,004 --> 00:04:12,495
    -Дядька, что вы делаете?
    17
    00:04:13,367 --> 00:04:15,250
    -Зачем дому глаза вырываете?
    18
    00:04:18,781 --> 00:04:24,158
    -Смотри, чтобы тебе не вырвали глаза.
    19
    00:05:10,522 --> 00:05:11,676
    -Прощайте.
    20
    00:05:13,143 --> 00:05:14,089
    -Всего доброго.
    21
    00:05:22,864 --> 00:05:26,609
    -И всё-таки, Аркадий Валерианович, если бы вы,
    немного больше платили хлеборобам денег,
    22
    00:05:26,609 --> 00:05:29,610
    они бы не искали счастья ни в Сибири,
    ни в Америке, ни в Канаде.
    23
    00:05:29,610 --> 00:05:31,298
    -Они бы остались здесь, дома.
    24
    00:05:32,750 --> 00:05:33,695
    -Не правда ли?
    25
    00:05:33,695 --> 00:05:35,438
    -Кто его знает.
    26
    00:05:40,828 --> 00:05:42,484
    -Бывайте здоровы.
    -
    Скачать .torrent

    Скачать торрент-файл бесплатно и на максимальной скорости!

    Как скачивать? · Что такое торрент? · Рейтинг и ограничения

    !ВНИМАНИЕ!
    Сайт не распространяет и не хранит электронные версии произведений, а занимается лишь лишь предоставлением доступа к создаваемому пользователями каталогу ссылок на торрент-файлы, которые содержат только списки хеш-сумм, убедительная просьба с жалобами обращаться напрямую к пользователю. Файлы для обмена на трекере предоставлены пользователями сайта, и администрация не несёт ответственности за их содержание. Просьба не заливать файлы, защищенные авторскими правами, а также файлы нелегального содержания!

    [Профиль] [ЛС]
    Показать сообщения:    
    Ответить на тему

    Текущее время: Сегодня, в 22:29

    Часовой пояс: GMT + 2



    Вы не можете начинать темы
    Вы не можете отвечать на сообщения
    Вы не можете редактировать свои сообщения
    Вы не можете удалять свои сообщения
    Вы не можете голосовать в опросах
    Вы не можете прикреплять файлы к сообщениям
    Вы не можете скачивать файлы