BitTorrentTracker PerecTracker.org
BitTorrentTracker PerecTracker.org
    
Регистрация  ·  Вход
 
 · 
Забыли пароль?

  • Летний рассказ / Sippur Kayitz / Summer Story (Шмуэль Хаймович / Shmuel Haimovich) [2004, Израиль, Драма, DVDRip] VO + Sub Rus + Original Heb

    Ответить на тему
     
    Автор Сообщение

    Columb

    Создавать темы 26-Окт-2013 13:53

           

    [Цитировать]

    Летний рассказ / Sippur Kayitz / Summer Story
    Страна: Израиль
    Жанр: Драма
    Год выпуска: 2004
    Продолжительность: 01:11:45
    Перевод: Одноголосый закадровый
    Cубтитры: русские
    Оригинальная аудиодорожка: иврит
    Режиссер: Шмуэль Хаймович / Shmuel Haimovich
    В ролях: Коста Каплан, Айа Штейновиц, Итамар Коэн, Тиква Дайан, Эвелин Хагоэль, Альберт Илуз, Данни Штег
    Описание: 1982 год, разгар Ливанской войны. 13-летний Галь работает в летние каникулы почтальоном. Работа сталкивает его с Хаей, 19-летней девушкой, страдающей тяжелой болезнью сердца. Хая находит утешение в переписке с солдатами, воюющими в Ливане. По взаимному притяжению неискушеных душ между Галем и Хаей возникает дружба
    Сэмпл: http://multi-up.com/916708
    Качество видео: DVDRip
    Формат видео: AVI
    Видео: 688x384 (1.79:1), 25 fps, XviD build 50 ~1235 kbps avg, 0.19 bit/pixel
    Аудио 1: 48 kHz, MPEG Layer 3, 2 ch, ~192.00 kbps avg(Русский)
    Аудио 2: 48 kHz, MPEG Layer 3, 2 ch, ~112.50 kbps avg(Иврит)
    Формат субтитров: softsub (SRT)
    Доп. информация о субтитрах: Русские внешние

    MediaInfo

    Общее
    Полное имя : D:\Мои видеозаписи\Летний рассказ\Summer Story.avi
    Формат : AVI
    Формат/Информация : Audio Video Interleave
    Размер файла : 800 Мбайт
    Продолжительность : 1 ч. 11 м.
    Режим общего битрейта : Переменный
    Общий поток : 1559 Кбит/сек
    Программа кодирования : VirtualDubModRus 1.5.10.2 (build 2542/release)
    Библиотека кодирования : VirtualDubMod build 2542/release
    Видео
    Идентификатор : 0
    Формат : MPEG-4 Visual
    Профиль формата : Advanced Simple@L5
    Параметр BVOP формата : 1
    Параметр QPel формата : Нет
    Параметр GMC формата : Без точки перехода
    Параметр матрицы формата : Выборочная
    Идентификатор кодека : XVID
    Идентификатор кодека/Подсказка : XviD
    Продолжительность : 1 ч. 11 м.
    Битрейт : 1237 Кбит/сек
    Ширина : 688 пикселей
    Высота : 384 пикселя
    Соотношение сторон : 16:9
    Частота кадров : 25,000 кадров/сек
    Цветовое пространство : YUV
    Субдискретизация насыщенности : 4:2:0
    Битовая глубина : 8 бит
    Тип развёртки : Прогрессивная
    Метод сжатия : С потерями
    Бит/(Пиксели*Кадры) : 0.187
    Размер потока : 635 Мбайт (79%)
    Библиотека кодирования : XviD 1.2.1 (UTC 2008-12-04)
    Аудио #1
    Идентификатор : 1
    Формат : MPEG Audio
    Версия формата : Version 1
    Профиль формата : Layer 3
    Режим : Joint stereo
    Идентификатор кодека : 55
    Идентификатор кодека/Подсказка : MP3
    Продолжительность : 1 ч. 11 м.
    Вид битрейта : Постоянный
    Битрейт : 192 Кбит/сек
    Каналы : 2 канала
    Частота : 48,0 КГц
    Метод сжатия : С потерями
    Размер потока : 98,5 Мбайт (12%)
    Выравнивание : Соединение по промежуткам
    Продолжительность промежутка : 40 мс. (1,00 видеокадр)
    Время предзагрузки промежутка : 504 мс.
    Библиотека кодирования : LAME3.98
    Аудио #2
    Идентификатор : 2
    Формат : MPEG Audio
    Версия формата : Version 1
    Профиль формата : Layer 3
    Режим : Joint stereo
    Идентификатор кодека : 55
    Идентификатор кодека/Подсказка : MP3
    Продолжительность : 1 ч. 11 м.
    Вид битрейта : Переменный
    Битрейт : 113 Кбит/сек
    Номинальный битрейт : 128 Кбит/сек
    Каналы : 2 канала
    Частота : 48,0 КГц
    Метод сжатия : С потерями
    Размер потока : 57,7 Мбайт (7%)
    Выравнивание : Соединение по промежуткам
    Продолжительность промежутка : 24 мс. (0,60 видеокадр)
    Время предзагрузки промежутка : 563 мс.
    Библиотека кодирования : LAME3.98r
    Настройки программы : -m j -V 4 -q 2 -lowpass 17 --abr 128

    Скриншоты

    Скачать .torrent

    Скачать торрент-файл бесплатно и на максимальной скорости!

    Как скачивать? · Что такое торрент? · Рейтинг и ограничения

    !ВНИМАНИЕ!
    Сайт не распространяет и не хранит электронные версии произведений, а занимается лишь лишь предоставлением доступа к создаваемому пользователями каталогу ссылок на торрент-файлы, которые содержат только списки хеш-сумм, убедительная просьба с жалобами обращаться напрямую к пользователю. Файлы для обмена на трекере предоставлены пользователями сайта, и администрация не несёт ответственности за их содержание. Просьба не заливать файлы, защищенные авторскими правами, а также файлы нелегального содержания!

    [Профиль] [ЛС]
    Показать сообщения:    
    Ответить на тему

    Текущее время: Сегодня, в 15:51

    Часовой пояс: GMT + 2



    Вы не можете начинать темы
    Вы не можете отвечать на сообщения
    Вы не можете редактировать свои сообщения
    Вы не можете удалять свои сообщения
    Вы не можете голосовать в опросах
    Вы не можете прикреплять файлы к сообщениям
    Вы не можете скачивать файлы