BitTorrentTracker PerecTracker.org
BitTorrentTracker PerecTracker.org
    
Регистрация  ·  Вход
 
 · 
Забыли пароль?

  • Нелюбимая / Серии 1-4 из 4 (Артем Насыбулин) [2012, мелодрама, HDTVRip 720p]

    Ответить на тему
     
    Автор Сообщение

    Columb

    Создавать темы 25-Окт-2013 07:11

           

    [Цитировать]

    Нелюбимая
    Выпущено: Россия, Кинокомпания Русское
    Жанр: мелодрама
    Год выпуска: 2012
    Продолжительность: 00:45:00
    Субтитры: нет
    Режиссер: Артем Насыбулин
    В ролях: Надежда Михалкова, Олег Масленников-Войтов, Дмитрий Пчела, Анатолий Узденский, Игорь Бочкин, Алёна Ивченко, Наталья Гвоздикова, Саша Булатов, Светлана Павлова, Юлия Васильева, Владимир Юматов
    Описание: Аня, недавняя выпускница столичного мединститута, вынуждена вернуться домой, в провинцию, чтобы позаботиться о своей семье: пьющем отце и маленьком брате Ване. Героиня не подозревает, что дома ее ждут более серьезные перемены. С приездом девушки в городе всплывают толки о бывшем романе ее покойной матери с главврачом местной клиники Сергеем. От Ани скрывают результаты тайком проведенного анализа ДНК её младшего брата. Сергей и его сын, врач Михаил, придумывают хитроумный план усыновления, в котором главную роль должна сыграть ни о чем не подозревающая Аня..

    Автор рипа / записи: fanatus
    Исходник: Запись с телеканала РОССИЯ HD
    Качество: HDTVRip 720p
    Формат: MKV
    Видео кодек: H.264
    Аудио кодек: AC3
    Видео: MPEG-4 AVC, 3061 kbps , 1280x720 (16:9), 25.000 fps, 0.133 bit/pixel
    Аудио: AC3, 2 ch, 48 kHz, 192 kbps

    MediaInfo

    General
    Unique ID : 226682117458948803210961442674911957752 (0xAA896346046EA3E8BB6DABCFF9EF52F8)
    Complete name : F:\Neljubimaja.(1-4.seriji.iz.4).2012.HDTVRip.720p.fanatus\1 serija.mkv
    Format : Matroska
    Format version : Version 2
    File size : 2.02 GiB
    Duration : 1h 28mn
    Overall bit rate : 3 252 Kbps
    Movie name : Neljubimaja (2012) - fanatus
    Encoded date : UTC 2013-10-24 14:01:26
    Writing application : mkvmerge v3.4.0 ('Rapunzel') сборка от May 15 2010 09:38:20
    Writing library : libebml v0.8.0 + libmatroska v0.9.0
    Video
    ID : 1
    Format : AVC
    Format/Info : Advanced Video Codec
    Format profile : High@L4.1
    Format settings, CABAC : Yes
    Format settings, ReFrames : 9 frames
    Codec ID : V_MPEG4/ISO/AVC
    Duration : 1h 28mn
    Bit rate : 3 061 Kbps
    Width : 1 280 pixels
    Height : 720 pixels
    Display aspect ratio : 16:9
    Frame rate : 25.000 fps
    Color space : YUV
    Chroma subsampling : 4:2:0
    Bit depth : 8 bits
    Scan type : Progressive
    Bits/(Pixel*Frame) : 0.133
    Stream size : 1.86 GiB (92%)
    Title : 1 serija
    Writing library : x264 core 138 r2358 9e941d1
    Encoding settings : cabac=1 / ref=9 / deblock=1:-2:-2 / analyse=0x3:0x113 / me=umh / subme=10 / psy=1 / psy_rd=1.00:0.10 / mixed_ref=1 / me_range=32 / chroma_me=1 / trellis=2 / 8x8dct=1 / cqm=0 / deadzone=21,11 / fast_pskip=0 / chroma_qp_offset=-3 / threads=16 / lookahead_threads=2 / sliced_threads=0 / nr=0 / decimate=0 / interlaced=0 / bluray_compat=0 / constrained_intra=0 / bframes=9 / b_pyramid=2 / b_adapt=2 / b_bias=0 / direct=3 / weightb=1 / open_gop=0 / weightp=2 / keyint=250 / keyint_min=25 / scenecut=40 / intra_refresh=0 / rc=2pass / mbtree=0 / bitrate=3061 / ratetol=1.0 / qcomp=0.65 / qpmin=0 / qpmax=69 / qpstep=4 / cplxblur=20.0 / qblur=0.5 / ip_ratio=1.40 / pb_ratio=1.30 / aq=1:0.90
    Language : Russian
    Default : Yes
    Forced : No
    Matrix coefficients : BT.709-5, BT.1361, IEC 61966-2-4 709, SMPTE RP177
    Audio
    ID : 2
    Format : AC-3
    Format/Info : Audio Coding 3
    Mode extension : CM (complete main)
    Format settings, Endianness : Big
    Codec ID : A_AC3
    Duration : 1h 28mn
    Bit rate mode : Constant
    Bit rate : 192 Kbps
    Channel(s) : 2 channels
    Channel positions : Front: L R
    Sampling rate : 48.0 KHz
    Bit depth : 16 bits
    Compression mode : Lossy
    Stream size : 122 MiB (6%)
    Language : Russian
    Default : Yes
    Forced : No

    Скриншот c названием фильма

    Скриншоты

    Скачать .torrent

    Скачать торрент-файл бесплатно и на максимальной скорости!

    Как скачивать? · Что такое торрент? · Рейтинг и ограничения

    !ВНИМАНИЕ!
    Сайт не распространяет и не хранит электронные версии произведений, а занимается лишь лишь предоставлением доступа к создаваемому пользователями каталогу ссылок на торрент-файлы, которые содержат только списки хеш-сумм, убедительная просьба с жалобами обращаться напрямую к пользователю. Файлы для обмена на трекере предоставлены пользователями сайта, и администрация не несёт ответственности за их содержание. Просьба не заливать файлы, защищенные авторскими правами, а также файлы нелегального содержания!

    [Профиль] [ЛС]
    Показать сообщения:    
    Ответить на тему

    Текущее время: Сегодня, в 05:53

    Часовой пояс: GMT + 2



    Вы не можете начинать темы
    Вы не можете отвечать на сообщения
    Вы не можете редактировать свои сообщения
    Вы не можете удалять свои сообщения
    Вы не можете голосовать в опросах
    Вы не можете прикреплять файлы к сообщениям
    Вы не можете скачивать файлы