BitTorrentTracker PerecTracker.org
BitTorrentTracker PerecTracker.org
    
Регистрация  ·  Вход
 
 · 
Забыли пароль?

  • Шибенду Лахири - Посвящение в начальную крийю [2005, Крийя йога, DVD5, RUS] (Видеоурок)

    Ответить на тему
     
    Автор Сообщение

    Columb

    Создавать темы 20-Окт-2013 07:12

           

    [Цитировать]

    Шибенду Лахири - Посвящение в начальную крийю
    Страна: Россия
    Тематика: Крийя йога
    Тип раздаваемого материала: Видеоурок
    Продолжительность: 01:42:20
    Год выпуска: 2005
    Язык: Русский
    Перевод: Не требуется
    Описание: Крийя йога была заново открыта великим индийским йогом Лахири Махасайя. Махаватар Бабаджи, вечный, никогда не стареющий йог, привел Лахари Махасайя на гору Дунагири а Гималайях и заново открыл ему истинную Крийя йогу. Шибенду Лахири передает это учение в первозданной чистоте, без искажений, со всеми нюансами, которые нельзя почерпнуть из книг. Они видны только в живом общении с Гуру.
    - Преданность.Окончательное уничтожение разделенности ума.
    - Концепции и прямое видение Реальности.
    - Контроль дыхания, контроль ума.
    - Лайя йога.
    - Религия неума в трех измерениях.
    Качество: DVD5
    Формат: DVD video
    Видео кодек: MPEG2
    Аудио кодек: MP2
    Видео: PAL, 720x576, (4:3), VBR, 25 fps
    Аудио: MPEG-1 Audio Layer 2, 256 kbps, 48.0 kHz, 2 ch
    CЕМПЛ

    Скриншоты

    DVDInfo

    Title: Посвящение в начальную крийю
    Size: 4.20 Gb ( 4 403 948,00 KBytes ) - DVD-5
    Enabled regions: 1, 2, 3, 4, 5, 6, 7, 8
    VTS_01 :
    Play Length: 01:42:20
    Video: PAL 4:3 (720x576) VBR
    Audio:
    Not specified (MPEG1, 2 ch)
    * Menus Information *
    VIDEO_TS Menu
    Video:
    PAL 4:3 (720x576) VBR
    Audio:
    Not specified (LinearPCM, 2 ch)
    Language Unit :
    Title Menu
    VTS_01 Menu
    Video:
    NTSC 4:3 (720x480) VBR
    Auto Pan&Scan, Auto Letterboxed
    Language Unit :
    Root Menu

    MediaInfo

    Общее
    Полное имя : Q:\Видео\Видеоуроки\Шибенду Лахири\DVD\Посвящение в начальную крийю\VIDEO_TS\VTS_01_1.VOB
    Формат : MPEG-PS
    Размер файла : 977 Мбайт
    Продолжительность : 23 м.
    Общий поток : 5810 Кбит/сек
    Видео
    Идентификатор : 224 (0xE0)
    Формат : MPEG Video
    Версия формата : Version 2
    Профиль формата : Main@Main
    Параметр BVOP формата : Да
    Параметр матрицы формата : Выборочная
    Параметр GOP формата : M=3, N=15
    Продолжительность : 23 м.
    Битрейт : 5432 Кбит/сек
    Ширина : 720 пикселей
    Высота : 576 пикселей
    Соотношение сторон : 4:3
    Частота кадров : 25,000 кадров/сек
    Стандарт вещания : PAL
    Цветовое пространство : YUV
    Субдискретизация насыщенности : 4:2:0
    Битовая глубина : 8 бит
    Тип развёртки : Чересстрочная
    Порядок развёртки : Нижнее поле первое
    Метод сжатия : С потерями
    Бит/(Пиксели*Кадры) : 0.524
    Временной код первого кадра : 00:00:00:00
    Оригинал временного кода : Group of pictures header
    Размер потока : 914 Мбайт (94%)
    Аудио
    Идентификатор : 192 (0xC0)
    Формат : MPEG Audio
    Версия формата : Version 1
    Профиль формата : Layer 2
    Продолжительность : 23 м.
    Вид битрейта : Постоянный
    Битрейт : 256 Кбит/сек
    Каналы : 2 канала
    Частота : 48,0 КГц
    Метод сжатия : С потерями
    Размер потока : 43,0 Мбайт (4%)
    Меню
    Скачать .torrent

    Скачать торрент-файл бесплатно и на максимальной скорости!

    Как скачивать? · Что такое торрент? · Рейтинг и ограничения

    !ВНИМАНИЕ!
    Сайт не распространяет и не хранит электронные версии произведений, а занимается лишь лишь предоставлением доступа к создаваемому пользователями каталогу ссылок на торрент-файлы, которые содержат только списки хеш-сумм, убедительная просьба с жалобами обращаться напрямую к пользователю. Файлы для обмена на трекере предоставлены пользователями сайта, и администрация не несёт ответственности за их содержание. Просьба не заливать файлы, защищенные авторскими правами, а также файлы нелегального содержания!

    [Профиль] [ЛС]
    Показать сообщения:    
    Ответить на тему

    Текущее время: Сегодня, в 14:38

    Часовой пояс: GMT + 2



    Вы не можете начинать темы
    Вы не можете отвечать на сообщения
    Вы не можете редактировать свои сообщения
    Вы не можете удалять свои сообщения
    Вы не можете голосовать в опросах
    Вы не можете прикреплять файлы к сообщениям
    Вы не можете скачивать файлы