BitTorrentTracker PerecTracker.org
BitTorrentTracker PerecTracker.org
    
Регистрация  ·  Вход
 
 · 
Забыли пароль?

  • Карибская тайна / Тайна Карибского залива / A Caribbean Mystery (Роберт Льюис / Robert Lewis) [1983, США, детектив, DVDRip] VO (Murya)

    Ответить на тему
     
    Автор Сообщение

    Columb

    Создавать темы 12-Окт-2013 12:07

           

    [Цитировать]

    Карибская тайна / Тайна Карибского залива / A Caribbean Mystery
    Страна: США
    Жанр: детектив
    Год выпуска: 1983
    Продолжительность: 01:36:06
    Перевод: Одноголосый закадровый Murya
    Cубтитры: нет
    Оригинальная аудиодорожка: нет
    Режиссер: Роберт Льюис / Robert Lewis
    В ролях:
    Хелен Хэйес
    Барнард Хьюз
    Джеймисон Паркер
    Сизон Хабли
    Свузи Кёрц
    Кэсси Йэтс
    Закес Мокае
    Стефен Махт
    Бет Хоуланд
    Морис Эванс
    ...

    Описание: телевизионная экранизация одноименного детективного романа Агаты Кристи. Первый из двух фильмов с Хелен Хэйес в роли мисс Джейн Марпл (второй - Зеркальное убийство / Murder with Mirrors (1985)).
    Майор в отставке Джеффри Пэлгрейв (М. Эванс), пишущий мемуары на карибском курорте, случайно выясняет, что один из проживающих в отеле является женоубийцей (по образу и подобию Синей Бороды). Но прежде, чем показать мисс Джейн Марпл (Х. Хэйес) его фотографию, майор становится жертвой вроде бы случайной передозировки алкоголя и препарата для снижения артериального давления. После того, как фотоснимок загадочно исчезает, и выясняется, что препарат принадлежит другому постояльцу отеля, мисс Марпл приходит к выводу: серийный убийца вновь взялся за старое. И, что хуже всего всего, убийства будут продолжаться. За помощью в разгадке преступления она обращается к пожилому, грубоватому бизнесмену мистеру Рефилу (Б. Хьюз).

    Сэмпл: http://sendfile.su/880136
    Качество видео: DVDRip
    Формат видео: AVI
    Видео: Xvid, 576x432, 25fps, 940Kbps Bits/Pixel : 0.158
    Аудио: MP3, 48 kHz, 2 channels, 128 kbps

    MediaInfo

    General
    Complete name : H:\Мои Раздачи\1983 Карибская тайна Тайна Карибского залива A Caribbean Mystery\A Caribbean Mystery
    1983_Эталон67.avi
    Format : AVI
    Format/Info : Audio Video Interleave
    File size : 743 MiB
    Duration : 1h 36mn
    Overall bit rate : 1 077 Kbps
    Director : Эталон67 from rutracker.org
    Writing application : VirtualDubMod 1.5.10.2 (build 2540/release)
    Writing library : VirtualDubMod build 2540/release
    Video
    ID : 0
    Format : MPEG-4 Visual
    Format profile : Advanced Simple@L5
    Format settings, BVOP : 1
    Format settings, QPel : No
    Format settings, GMC : No warppoints
    Format settings, Matrix : Default (H.263)
    Codec ID : XVID
    Codec ID/Hint : XviD
    Duration : 1h 36mn
    Bit rate : 940 Kbps
    Width : 576 pixels
    Height : 432 pixels
    Display aspect ratio : 4:3
    Frame rate : 23.976 fps
    Color space : YUV
    Chroma subsampling : 4:2:0
    Bit depth : 8 bits
    Scan type : Progressive
    Compression mode : Lossy
    Bits/(Pixel*Frame) : 0.158
    Stream size : 648 MiB (87%)
    Writing library : XviD 1.2.1 (UTC 2008-12-04)
    Audio
    ID : 1
    Format : MPEG Audio
    Format version : Version 1
    Format profile : Layer 3
    Mode : Dual mono
    Codec ID : 55
    Codec ID/Hint : MP3
    Duration : 1h 36mn
    Bit rate mode : Constant
    Bit rate : 128 Kbps
    Channel(s) : 2 channels
    Sampling rate : 48.0 KHz
    Compression mode : Lossy
    Stream size : 88.3 MiB (12%)
    Alignment : Aligned on interleaves
    Interleave, duration : 42 ms (1.00 video frame)
    Interleave, preload duration : 504 ms
    Writing library : LAME3.98
    Encoding settings : -m d -V 4 -q 3 -lowpass 17 -b 128

    Скриншот c названием фильма

    Скриншоты

    Скачать .torrent

    Скачать торрент-файл бесплатно и на максимальной скорости!

    Как скачивать? · Что такое торрент? · Рейтинг и ограничения

    !ВНИМАНИЕ!
    Сайт не распространяет и не хранит электронные версии произведений, а занимается лишь лишь предоставлением доступа к создаваемому пользователями каталогу ссылок на торрент-файлы, которые содержат только списки хеш-сумм, убедительная просьба с жалобами обращаться напрямую к пользователю. Файлы для обмена на трекере предоставлены пользователями сайта, и администрация не несёт ответственности за их содержание. Просьба не заливать файлы, защищенные авторскими правами, а также файлы нелегального содержания!

    [Профиль] [ЛС]
    Показать сообщения:    
    Ответить на тему

    Текущее время: Сегодня, в 15:02

    Часовой пояс: GMT + 2



    Вы не можете начинать темы
    Вы не можете отвечать на сообщения
    Вы не можете редактировать свои сообщения
    Вы не можете удалять свои сообщения
    Вы не можете голосовать в опросах
    Вы не можете прикреплять файлы к сообщениям
    Вы не можете скачивать файлы