BitTorrentTracker PerecTracker.org
BitTorrentTracker PerecTracker.org
    
Регистрация  ·  Вход
 
 · 
Забыли пароль?

  • Морской пехотинец 2 / The Marine 2 (Роэл Рэйн / Roel Reine) [2009, США, боевик, HDTVRip] MVO (1 канал)

    Ответить на тему
     
    Автор Сообщение

    Columb

    Создавать темы 12-Окт-2013 08:24

           

    [Цитировать]

    Морской пехотинец 2 / The Marine 2
    Страна: США
    Студия:Twentieth Century Fox Home Entertainment, WWE Studios, Marine 2 Productions
    Жанр: боевик
    Год выпуска: 2009
    Продолжительность: 01:28:13
    Перевод: Профессиональный (многоголосый закадровый) 1 канал
    Cубтитры: нет
    Оригинальная аудиодорожка: нет
    Режиссер: Роэл Рэйн / Roel Reine
    В ролях: Майкл Рукер, Лара Кокс, Темуэра Моррисон, Тед ДиБиасе мл., Able Wanamakok, Джозиа Д. Ли, Камерон Пирсон, Nicholas Snow, Марина Пономарёва, Ник Дэш...
    Описание: Основанная на подлинной истории, Marine 2 была полностью снята на месте событий в Пхукете, Таиланд и в роли морского разведчика-снайпера Джо Линвуда снялся суперзвезда рестлинга Тед Дибиаз. Так же как и в 2001, в Дос Пальмас, поездка Линвуда в рай вместе с женой внезапно расстраивается, когда партизаны берут под контроль уединенный пятизвездочный курорт и просят значительный выкуп. Партизанские лидеры начинают убивать заложников, как только часы пробьют полночь, заставляя Джо вспомнить свои спецнавыки, чтобы спасти заложников от неминуемой смерти.

    Качество видео: HDTVRip
    Формат видео: AVI
    Видео: XviD 720x400 (16:9) 25.0fps Bit rate 2049Kbps b/p 0.285
    Аудио: AC3 48.0KHz 2ch 224 Kbps

    MediaInfo

    General
    Complete name : E:\torrent\Морской пехотинец 2_HDTVRip.avi
    Format : AVI
    Format/Info : Audio Video Interleave
    File size : 1.41 GiB
    Duration : 1h 28mn
    Overall bit rate : 2 283 Kbps
    Writing library : VirtualDub build 32842/release
    Video
    ID : 0
    Format : MPEG-4 Visual
    Format profile : Advanced Simple@L5
    Format settings, BVOP : Yes
    Format settings, QPel : No
    Format settings, GMC : No warppoints
    Format settings, Matrix : Default (H.263)
    Codec ID : XVID
    Codec ID/Hint : XviD
    Duration : 1h 28mn
    Bit rate : 2 049 Kbps
    Width : 720 pixels
    Height : 400 pixels
    Display aspect ratio : 16:9
    Frame rate : 25.000 fps
    Color space : YUV
    Chroma subsampling : 4:2:0
    Bit depth : 8 bits
    Scan type : Progressive
    Bits/(Pixel*Frame) : 0.285
    Stream size : 1.26 GiB (90%)
    Writing library : XviD 1.2.1 (UTC 2008-12-04)
    Audio
    ID : 1
    Format : AC-3
    Format/Info : Audio Coding 3
    Mode extension : CM (complete main)
    Codec ID : 2000
    Duration : 1h 28mn
    Bit rate mode : Constant
    Bit rate : 224 Kbps
    Channel(s) : 2 channels
    Channel positions : Front: L R
    Sampling rate : 48.0 KHz
    Bit depth : 16 bits
    Stream size : 141 MiB (10%)
    Alignment : Aligned on interleaves
    Interleave, duration : 40 ms (1.00 video frame)
    Interleave, preload duration : 512 ms

    Скриншот c названием фильма

    Скриншоты

    Скачать .torrent

    Скачать торрент-файл бесплатно и на максимальной скорости!

    Как скачивать? · Что такое торрент? · Рейтинг и ограничения

    !ВНИМАНИЕ!
    Сайт не распространяет и не хранит электронные версии произведений, а занимается лишь лишь предоставлением доступа к создаваемому пользователями каталогу ссылок на торрент-файлы, которые содержат только списки хеш-сумм, убедительная просьба с жалобами обращаться напрямую к пользователю. Файлы для обмена на трекере предоставлены пользователями сайта, и администрация не несёт ответственности за их содержание. Просьба не заливать файлы, защищенные авторскими правами, а также файлы нелегального содержания!

    [Профиль] [ЛС]
    Показать сообщения:    
    Ответить на тему

    Текущее время: Сегодня, в 04:04

    Часовой пояс: GMT + 2



    Вы не можете начинать темы
    Вы не можете отвечать на сообщения
    Вы не можете редактировать свои сообщения
    Вы не можете удалять свои сообщения
    Вы не можете голосовать в опросах
    Вы не можете прикреплять файлы к сообщениям
    Вы не можете скачивать файлы