BitTorrentTracker PerecTracker.org
BitTorrentTracker PerecTracker.org
    
Регистрация  ·  Вход
 
 · 
Забыли пароль?

  • Ящик Пандоры / Pandora'nin kutusu (Есим Устаоглу / Yesim Ustaoglu) [2008, Турция, драма, DVDRip] Sub Rus (lobo)

    Ответить на тему
     
    Автор Сообщение

    Columb

    Создавать темы 12-Окт-2013 08:22

           

    [Цитировать]

    Ящик Пандоры / Pandora'nin kutusu
    Страна: Турция
    Жанр: драма
    Год выпуска: 2008
    Продолжительность: 01:49:24-Перевод: Субтитры lobo
    Cубтитры: русские
    Оригинальная аудиодорожка: турецкий-Режиссер: Есим Устаоглу / Yesim Ustaoglu-В ролях: Онур Юнсаль, Дерия Алабора, Цилла Челтон, Ёвюль Авкиран, Осман Сонант, Тайфун Бадемсой, Илкер Озйилдирим, Назми Кирик, Эмрах Тинте-Описание:
    Когда старая мать, живущая в горном селе, начинает проявлять признаки старческого слабоумия, её живущие в городе дети, несмотря на конфликты прошлого, вынуждены объединить усилия и взять заботу о ней на себя. Они забирают ее в город, и приезд матери словно открывает ящик Пандоры со всеми их семейными проблемами. И кто бы мог подумать, что больше всего сочувствия к больной проявит именно тот, от кого, казалось бы, этого можно было ждать менее всего… Думается, многие из нас могут узнать самих себя в ком-то из героев этого фильма.

    Награды

    МКФ в Сан-Себастьяне, 2008
    Приз Золотая Морская Раковина – режиссер Есим Устаоглу
    Приз Серебряная Морская Раковина - Лучшая актриса, Цилла Челтон
    КФ «Золотой Апельсин» в Анталье, 2008
    Приз Золотой Апельсин – Лучшая актриса второго плана, Ёвюль Авкиран
    МКФ Синеманила, 2009
    Приз – Лучшая актриса, Цилла Челтон
    -Качество видео: DVDRip
    Формат видео: AVI
    Видео: 656x360 (1.82:1), 25 fps, XviD MPEG-4 ~759 kbps avg, 0.13 bit/pixel
    Аудио: 48 kHz, MPEG Layer 3, 2 ch, ~128.00 kbps avg
    Формат субтитров: softsub (SRT)

    MediaInfo

    Format : AVI
    Format/Info : Audio Video Interleave
    File size : 705 MiB
    Duration : 1h 49mn
    Overall bit rate : 901 Kbps
    Writing application : Lavf52.0.0
    Video
    ID : 0
    Format : xvid
    Codec ID : xvid
    Duration : 1h 49mn
    Bit rate : 760 Kbps
    Width : 656 pixels
    Height : 360 pixels
    Display aspect ratio : 16:9
    Frame rate : 25.000 fps
    Bits/(Pixel*Frame) : 0.129
    Stream size : 595 MiB (84%)
    Audio
    ID : 1
    Format : MPEG Audio
    Format version : Version 1
    Format profile : Layer 3
    Mode : Joint stereo
    Mode extension : MS Stereo
    Codec ID : 55
    Codec ID/Hint : MP3
    Duration : 1h 49mn
    Bit rate mode : Constant
    Bit rate : 128 Kbps
    Channel(s) : 2 channels
    Sampling rate : 48.0 KHz
    Compression mode : Lossy
    Stream size : 100 MiB (14%)
    Alignment : Aligned on interleaves
    Interleave, duration : 24 ms (0.60 video frame)

    Скриншот c названием фильма

    Скриншоты

    Фрагмент субтитров

    4
    00:06:09,000 --> 00:06:11,100
    Когда это случилось?
    5
    00:06:15,100 --> 00:06:16,400
    Хорошо.
    6
    00:06:17,900 --> 00:06:21,100
    Большое вам спасибо.
    7
    00:06:27,100 --> 00:06:28,300
    Несрин?
    8
    00:06:33,700 --> 00:06:35,500
    Что такое?
    9
    00:06:40,100 --> 00:06:42,300
    Что-то случилось с Муратом?
    10
    00:06:43,800 --> 00:06:45,900
    Нет, не с Муратом.
    11
    00:06:47,200 --> 00:06:49,600
    Моя мать потерялась.
    12
    00:06:58,800 --> 00:06:59,900
    Несрин?
    13
    00:07:02,700 --> 00:07:04,600
    Я только что приземлилась.
    14
    00:07:05,900 --> 00:07:06,900
    Что?
    15
    00:07:09,100 --> 00:07:11,100
    Когда это было?
    16
    00:07:13,600 --> 00:07:17,100
    Я на пути в мою
    газетную редакцию.
    17
    00:07:18,100 --> 00:07:19,900
    Хорошо, сделаю.
    18
    00:07:20,800 --> 00:07:21,700
    Пока.
    19
    00:08:31,800 --> 00:08:33,100
    Иду.
    20
    00:09:08,500 --> 00:09:10,900
    - Мы направляемся в деревню.
    - Куда?
    21
    00:09:11,300 --> 00:09:14,400
    Мама пропала.
    Несрин ждет в машине.
    22
    00:09:14,400 --> 00:09:16,500
    Брось эту сигарету!
    23
    00:09:17,200 --> 00:09:19,400
    Так рано утром!
    24
    00:09:27,900 --> 00:09:29,900
    Как полиция узнала?
    25
    00:09:30,900 --> 00:09:33,400
    Им рассказали сельчане.
    26
    00:09:37,600 --> 00:09:39,700
    Где она может быть?
    Скачать .torrent

    Скачать торрент-файл бесплатно и на максимальной скорости!

    Как скачивать? · Что такое торрент? · Рейтинг и ограничения

    !ВНИМАНИЕ!
    Сайт не распространяет и не хранит электронные версии произведений, а занимается лишь лишь предоставлением доступа к создаваемому пользователями каталогу ссылок на торрент-файлы, которые содержат только списки хеш-сумм, убедительная просьба с жалобами обращаться напрямую к пользователю. Файлы для обмена на трекере предоставлены пользователями сайта, и администрация не несёт ответственности за их содержание. Просьба не заливать файлы, защищенные авторскими правами, а также файлы нелегального содержания!

    [Профиль] [ЛС]
    Показать сообщения:    
    Ответить на тему

    Текущее время: Сегодня, в 18:25

    Часовой пояс: GMT + 2



    Вы не можете начинать темы
    Вы не можете отвечать на сообщения
    Вы не можете редактировать свои сообщения
    Вы не можете удалять свои сообщения
    Вы не можете голосовать в опросах
    Вы не можете прикреплять файлы к сообщениям
    Вы не можете скачивать файлы