BitTorrentTracker PerecTracker.org
BitTorrentTracker PerecTracker.org
    
Регистрация  ·  Вход
 
 · 
Забыли пароль?

  • Бивис и Батт-хед / Beavis and Butt-Head / Сезон: 8 / Серии: 5,7 из 22 (Майк Джадж / Mike Judge) [2011, мультсериал, комедия, BDRip 1080p] VO + MVO + VO

    Ответить на тему
     
    Автор Сообщение

    Columb

    Создавать темы 10-Окт-2013 06:27

           

    [Цитировать]

    Бивис и Батт-хед / Beavis and Butt-Head
    Страна: США
    Жанр: мультсериал, комедия
    Продолжительность: 00:10:00 / 00:20:00
    Год выпуска: 2011
    Перевод: Профессиональный (одноголосый, закадровый)/Сергей Чонишвили MTV Россия/
    Перевод 2: Профессиональный (многоголосый, закадровый) /2х2/
    Перевод 3: Одноголосый закадровый ID-Daemon
    Запись звука и сведение: Beer kolesik Drinkers
    Режиссёр: Майк Джадж / Mike Judge
    Описание: Бивис и Батт-хед - самый загадочный американский комедийный сериал. А точнее это анекдотичный сериал. Постоянная игра слов, тонкие намеки и множество редчайших сленговых выражений делают сериал очень сложным в переводе. Майк Джадж создал своих героев чтобы высмеять и поиздеваться над вырождающейся американской нацией, над пассивным, нажирающимся фастфудом взрослым поколением и стремительным отупением молодежи. Неудивительно что он подвергался многочисленным нападкам. До сих пор сериал официально не выпущен полностью ни в одной стране мира.
    Список серий:
    05 - Holy Cornholio
    07 - Supersize Me
    Семпл: http://www.sendspace.com/file/hlvh87
    Качество: BDRip 1080p
    Формат: MKV
    Видео: 1440x1080p, 23.976 fps, x264, 3763 kbps
    Аудио MTV Россия: AC3 2ch, 48 khz, 192 kbps
    Аудио 2x2: AC3 2ch, 48 khz, 192 kbps
    Аудио ID-Daemon: AC3 5.1, 48 khz, 448 kbps
    Аудио Eng: AC3 5.1, 48 khz, 448 kbps
    Субтитры: английские

    Подробные технические данные

    GeneralUnique ID : 172762402874847412598398222372604207511 (0x81F8D41851F53B6CAA0881C2E0C7E197)Complete name : D:\Beavis and Butt-Head - Season 8 (2011)\05 - Holy Cornholio (1).mkvFormat : MatroskaFormat version : Version 4 / Version 2File size : 773 MiBDuration : 21mn 25sOverall bit rate : 5 042 KbpsMovie name : Released by shurikelloEncoded date : UTC 2013-10-09 07:13:58Writing application : mkvmerge v6.0.0 ('Coming Up For Air') built on Jan 20 2013 09:52:00Writing library : libebml v1.3.0 + libmatroska v1.4.0
    VideoID : 1Format : AVCFormat/Info : Advanced Video CodecFormat profile : High@L4.1Format settings, CABAC : YesFormat settings, ReFrames : 5 framesCodec ID : V_MPEG4/ISO/AVCBit rate : 3 763 KbpsWidth : 1 440 pixelsHeight : 1 080 pixelsDisplay aspect ratio : 4:3Frame rate mode : VariableOriginal frame rate : 23.976 fpsColor space : YUVChroma subsampling : 4:2:0Bit depth : 8 bitsScan type : ProgressiveBits/(Pixel*Frame) : 0.101Writing library : x264 core 129 r2230 1cffe9fEncoding settings : cabac=1 / ref=5 / deblock=1:-3:-3 / analyse=0x3:0x133 / me=umh / subme=11 / psy=1 / psy_rd=1.00:0.05 / mixed_ref=1 / me_range=32 / chroma_me=1 / trellis=2 / 8x8dct=1 / cqm=0 / deadzone=21,11 / fast_pskip=0 / chroma_qp_offset=-3 / threads=3 / lookahead_threads=1 / sliced_threads=0 / nr=0 / decimate=0 / interlaced=0 / bluray_compat=0 / constrained_intra=0 / bframes=9 / b_pyramid=2 / b_adapt=2 / b_bias=0 / direct=3 / weightb=1 / open_gop=0 / weightp=2 / keyint=240 / keyint_min=24 / scenecut=40 / intra_refresh=0 / rc=2pass / mbtree=0 / bitrate=3763 / ratetol=1.0 / qcomp=0.70 / qpmin=0 / qpmax=69 / qpstep=4 / cplxblur=20.0 / qblur=0.5 / ip_ratio=1.40 / pb_ratio=1.30 / aq=2:0.80Language : EnglishDefault : YesForced : No
    Audio #1ID : 2Format : AC-3Format/Info : Audio Coding 3Mode extension : CM (complete main)Format settings, Endianness : BigCodec ID : A_AC3Duration : 21mn 25sBit rate mode : ConstantBit rate : 192 KbpsChannel(s) : 2 channelsChannel positions : Front: L RSampling rate : 48.0 KHzBit depth : 16 bitsCompression mode : LossyStream size : 29.4 MiB (4%)Title : MTV РоссияLanguage : RussianDefault : YesForced : No
    Audio #2ID : 3Format : AC-3Format/Info : Audio Coding 3Mode extension : CM (complete main)Format settings, Endianness : BigCodec ID : A_AC3Duration : 21mn 25sBit rate mode : ConstantBit rate : 192 KbpsChannel(s) : 2 channelsChannel positions : Front: L RSampling rate : 48.0 KHzBit depth : 16 bitsCompression mode : LossyStream size : 29.4 MiB (4%)Title : 2x2Language : RussianDefault : NoForced : No
    Audio #3ID : 4Format : AC-3Format/Info : Audio Coding 3Mode extension : CM (complete main)Format settings, Endianness : BigCodec ID : A_AC3Duration : 21mn 25sBit rate mode : ConstantBit rate : 448 KbpsChannel(s) : 6 channelsChannel positions : Front: L C R, Side: L R, LFESampling rate : 48.0 KHzBit depth : 16 bitsCompression mode : LossyStream size : 68.7 MiB (9%)Title : ID-Daemon, AC3 5.1, 448 kbpsLanguage : RussianDefault : NoForced : No
    Audio #4ID : 5Format : AC-3Format/Info : Audio Coding 3Mode extension : CM (complete main)Format settings, Endianness : BigCodec ID : A_AC3Duration : 21mn 25sBit rate mode : ConstantBit rate : 448 KbpsChannel(s) : 6 channelsChannel positions : Front: L C R, Side: L R, LFESampling rate : 48.0 KHzBit depth : 16 bitsCompression mode : LossyStream size : 68.7 MiB (9%)Title : AC3 5.1, 448 kbpsLanguage : EnglishDefault : NoForced : No
    TextID : 6Format : UTF-8Codec ID : S_TEXT/UTF8Codec ID/Info : UTF-8 Plain TextLanguage : EnglishDefault : NoForced : No

    Скриншоты

    Внимание! Раздача ведётся путём добавления новых серий

    Внимание! Раздача ведётся путём добавления новых серий; при каждом добавлении создётся новый торрент. Чтобы начать докачку новой серии, пользователям необходимо сделать следующее:
    (1) остановить скачивание,
    (2) удалить старый торрент у себя из клиента (старые серии удалять не надо),
    (3) скачать новый торрент и запустить его у себя в клиенте вместо старого, при этом указать клиенту путь в старую папку куда и должно происходить скачивание новых серий.
    Ваш клиент при этом должен произвести хеширование (проверку) старой папки (если не производит сам - помогите ему сделать это), и будет докачивать только те серии которых у вас ещё нет. Старые серии при этом не удаляются, а продолжают раздаваться!
    Eсли вы уже удалили старые серии, то предотвратить повторную закачку старых серий можно, отжав галочку в соответсвующих местах при запуске нового торрента. По возможности, желательно не удалять старые серии как можно дольше чтобы релизёр не столько продолжал раздавать старые серии, а смог сконцентрироваться на новых.
    Скачать .torrent

    Скачать торрент-файл бесплатно и на максимальной скорости!

    Как скачивать? · Что такое торрент? · Рейтинг и ограничения

    !ВНИМАНИЕ!
    Сайт не распространяет и не хранит электронные версии произведений, а занимается лишь лишь предоставлением доступа к создаваемому пользователями каталогу ссылок на торрент-файлы, которые содержат только списки хеш-сумм, убедительная просьба с жалобами обращаться напрямую к пользователю. Файлы для обмена на трекере предоставлены пользователями сайта, и администрация не несёт ответственности за их содержание. Просьба не заливать файлы, защищенные авторскими правами, а также файлы нелегального содержания!

    [Профиль] [ЛС]
    Показать сообщения:    
    Ответить на тему

    Текущее время: Сегодня, в 18:09

    Часовой пояс: GMT + 2



    Вы не можете начинать темы
    Вы не можете отвечать на сообщения
    Вы не можете редактировать свои сообщения
    Вы не можете удалять свои сообщения
    Вы не можете голосовать в опросах
    Вы не можете прикреплять файлы к сообщениям
    Вы не можете скачивать файлы