BitTorrentTracker PerecTracker.org
BitTorrentTracker PerecTracker.org
    
Регистрация  ·  Вход
 
 · 
Забыли пароль?

  • Мифы Древней Греции. Как они появились? / BBC - Greek Myths: Tales of Travelling Heroes (Ариф Нурмохамед / Arif Nurmohamed) [2010, документальный, история HDTVRip 720p]

    Ответить на тему
     
    Автор Сообщение

    Columb

    Создавать темы 10-Окт-2013 06:14

           

    [Цитировать]

    Мифы Древней Греции. Как они появились? / Greek Myths: Tales of Travelling Heroes
    Год выпуска: 2010
    Страна: Великобритания
    Студия: BBC
    Жанр: документальный, история
    Продолжительность: 01:26:42
    Перевод: Одноголосый (закадровый) - Видеофильм ТВ
    Субтитры: английские
    Режиссер: Ариф Нурмохамед / Arif Nurmohamed
    Описание: Английский историк и преподаватель Робин Лэйн Фокс исследует мифы Древней Греции - их происхождение и развитие. Он путешествует по Средиземноморью от Турции до Греции, показывает как греческие мифы формировались и развивались.
    Сэмпл
    Тип релиза: HDTVRip 720p
    Контейнер: MKV
    Видео: MPEG-4 AVC, 1280x720 (16:9), 25.000 fps, 4000 Kbps
    Аудио: Russian AC3, 2 ch, 48KHz, 128 Kbps
    Аудио 2: English AC3, 2 ch, 48KHz, 192 Kbps

    MediaInfo

    C:\Видео\BBC.Greek.Myths.Tales.of.Travelling.Heroes.HDTV (Rutracker.org).mkv
    General
    Unique ID : 251419359608101098553246416135055150523 (0xBD259B79C4BF02BE9A68A5F46A270DBB)
    Complete name : C:\Видео\BBC.Greek.Myths.Tales.of.Travelling.Heroes.HDTV (Rutracker.org).mkv
    Format : Matroska
    Format version : Version 4 / Version 2
    File size : 2.63 GiB
    Duration : 1h 26mn
    Overall bit rate : 4 335 Kbps
    Movie name : Greek Myths: Tales of Travelling Heroes (2010) / Мифы Древней Греции: Как они появились?
    Encoded date : UTC 2013-10-08 15:51:16
    Writing application : mkvmerge v6.4.1 ('Omega Point') built on Sep 16 2013 22:05:10
    Writing library : libebml v1.3.0 + libmatroska v1.4.1
    Video #1
    ID : 1
    Format : AVC
    Format/Info : Advanced Video Codec
    Format profile : High@L4.1
    Format settings, CABAC : Yes
    Format settings, ReFrames : 4 frames
    Codec ID : V_MPEG4/ISO/AVC
    Duration : 1h 26mn
    Bit rate : 4 000 Kbps
    Width : 1 280 pixels
    Height : 720 pixels
    Display aspect ratio : 16:9
    Frame rate mode : Constant
    Frame rate : 25.000 fps
    Color space : YUV
    Chroma subsampling : 4:2:0
    Bit depth : 8 bits
    Scan type : Progressive
    Bits/(Pixel*Frame) : 0.174
    Stream size : 2.38 GiB (91%)
    Writing library : x264 core 105 r1732 2b04482
    Encoding settings : cabac=1 / ref=4 / deblock=1:0:0 / analyse=0x3:0x113 / me=umh / subme=9 / psy=1 / psy_rd=1.00:0.00 / mixed_ref=1 / me_range=24 / chroma_me=1 / trellis=1 / 8x8dct=1 / cqm=0 / deadzone=21,11 / fast_pskip=0 / chroma_qp_offset=-2 / threads=3 / sliced_threads=0 / nr=0 / decimate=1 / interlaced=0 / constrained_intra=0 / bframes=3 / b_pyramid=0 / b_adapt=1 / b_bias=0 / direct=1 / weightb=1 / open_gop=0 / weightp=2 / keyint=125 / keyint_min=25 / scenecut=40 / intra_refresh=0 / rc_lookahead=40 / rc=2pass / mbtree=1 / bitrate=4000 / ratetol=1.0 / qcomp=0.60 / qpmin=10 / qpmax=51 / qpstep=4 / cplxblur=20.0 / qblur=0.5 / ip_ratio=1.40 / aq=1:1.00
    Language : English
    Default : Yes
    Forced : No
    Audio #2
    ID : 2
    Format : AC-3
    Format/Info : Audio Coding 3
    Mode extension : CM (complete main)
    Format settings, Endianness : Big
    Codec ID : A_AC3
    Duration : 1h 26mn
    Bit rate mode : Constant
    Bit rate : 128 Kbps
    Channel count : 2 channels
    Channel positions : Front: L R
    Sampling rate : 48.0 KHz
    Bit depth : 16 bits
    Compression mode : Lossy
    Stream size : 79.4 MiB (3%)
    Title : Видеофильм ТВ
    Language : Russian
    Default : Yes
    Forced : No
    Audio #3
    ID : 3
    Format : AC-3
    Format/Info : Audio Coding 3
    Mode extension : CM (complete main)
    Format settings, Endianness : Big
    Codec ID : A_AC3
    Duration : 1h 26mn
    Bit rate mode : Constant
    Bit rate : 192 Kbps
    Channel count : 2 channels
    Channel positions : Front: L R
    Sampling rate : 48.0 KHz
    Bit depth : 16 bits
    Compression mode : Lossy
    Delay relative to video : 2ms
    Stream size : 119 MiB (4%)
    Language : English
    Default : No
    Forced : No
    Text #4
    ID : 4
    Format : UTF-8
    Codec ID : S_TEXT/UTF8
    Codec ID/Info : UTF-8 Plain Text
    Language : English
    Default : No
    Forced : No

    Скриншоты

    Скачать .torrent

    Скачать торрент-файл бесплатно и на максимальной скорости!

    Как скачивать? · Что такое торрент? · Рейтинг и ограничения

    !ВНИМАНИЕ!
    Сайт не распространяет и не хранит электронные версии произведений, а занимается лишь лишь предоставлением доступа к создаваемому пользователями каталогу ссылок на торрент-файлы, которые содержат только списки хеш-сумм, убедительная просьба с жалобами обращаться напрямую к пользователю. Файлы для обмена на трекере предоставлены пользователями сайта, и администрация не несёт ответственности за их содержание. Просьба не заливать файлы, защищенные авторскими правами, а также файлы нелегального содержания!

    [Профиль] [ЛС]
    Показать сообщения:    
    Ответить на тему

    Текущее время: Сегодня, в 05:53

    Часовой пояс: GMT + 2



    Вы не можете начинать темы
    Вы не можете отвечать на сообщения
    Вы не можете редактировать свои сообщения
    Вы не можете удалять свои сообщения
    Вы не можете голосовать в опросах
    Вы не можете прикреплять файлы к сообщениям
    Вы не можете скачивать файлы