BitTorrentTracker PerecTracker.org
BitTorrentTracker PerecTracker.org
    
Регистрация  ·  Вход
 
 · 
Забыли пароль?

  • Alien Rage - Unlimited [2013, Прохождение / Walkthrough / LionAntonny] [HD 1080p] [ENG / RUS]

    Ответить на тему
     
    Автор Сообщение

    Columb

    Создавать темы 06-Окт-2013 14:20

           

    [Цитировать]

    Alien Rage - UnlimitedГод выпуска: 2013
    Жанр: Action / Shooter / Sci-Fi / 3D / 1st Person
    Создатель видео: LionAntonny
    Продолжительность: 05:08:54
    Субтитры: Русские
    Язык озвучки: Английский
    Описание: Alien Rage – научно-фантастический шутер от первого лица в аркадном стиле, созданный на движке Unreal Engine 3 и распространяемый в цифровом виде через PlayStation Network, Xbox LIVE Arcade и Steam. Вам предстоит вжиться в роль высококвалифицированного элитного коммандос и отправиться на миссию по уничтожению пришельцев. В Alien Rage вас ждет 14 уровней, разнообразие врагов, для сражения с которыми предстоит использовать различные стратегии, 10 видов смертоносного оружия, имеющего как основной, так и второстепенный режим ведения огня, впечатляющие бои с боссами и многое другое.
    Доп. информация: Прохождение с комментариями LionAntonny.
    Качество: HD
    Контейнер: MP4
    Видео кодек: AVC
    Аудио кодек: AAC
    Видео: AVC / ~6000 kbps avg / 1920x1080p / 30,000 fps / 16:9
    Аудио: AAC / 2.0 / 44.1 kHz / 192 kbps / 16-bit

    Сркиншоты

    MediaInfo

    C:\GORESEWAGE\Alien Rage - Unlimited 2013 Walkthrough HD 1080p GORESEWAGE\Прохождение Alien Rage - Unlimited [1080p] — Часть 1- Термоядерный шутер.mp4
    General
    Complete name : C:\GORESEWAGE\Alien Rage - Unlimited 2013 Walkthrough HD 1080p GORESEWAGE\Прохождение Alien Rage - Unlimited [1080p] — Часть 1- Термоядерный шутер.mp4
    Format : MPEG-4
    Format profile : Base Media / Version 2
    Codec ID : mp42
    File size : 1.20 GiB
    Duration : 28mn 11s
    Overall bit rate mode : Variable
    Overall bit rate : 6 090 Kbps
    Encoded date : UTC 2013-09-24 15:49:26
    Tagged date : UTC 2013-09-24 15:49:26
    gsst : 0
    gstd : 1691990
    gssd : BADC23A44HH1381020992009299
    gshh : r4---sn-n8v7ln7r.c.youtube.com
    Video #1
    ID : 1
    Format : AVC
    Format/Info : Advanced Video Codec
    Format profile : High@L4.0
    Format settings, CABAC : Yes
    Format settings, ReFrames : 1 frame
    Format settings, GOP : M=1, N=60
    Codec ID : avc1
    Codec ID/Info : Advanced Video Coding
    Duration : 28mn 11s
    Bit rate : 5 896 Kbps
    Maximum bit rate : 18.8 Mbps
    Width : 1 920 pixels
    Height : 1 080 pixels
    Display aspect ratio : 16:9
    Frame rate mode : Constant
    Frame rate : 30.000 fps
    Color space : YUV
    Chroma subsampling : 4:2:0
    Bit depth : 8 bits
    Scan type : Progressive
    Bits/(Pixel*Frame) : 0.095
    Stream size : 1.16 GiB (97%)
    Tagged date : UTC 2013-09-24 16:06:26
    Audio #2
    ID : 2
    Format : AAC
    Format/Info : Advanced Audio Codec
    Format profile : LC
    Codec ID : 40
    Duration : 28mn 11s
    Bit rate mode : Variable
    Bit rate : 192 Kbps
    Maximum bit rate : 201 Kbps
    Channel(s) : 2 channels
    Channel positions : Front: L R
    Sampling rate : 44.1 KHz
    Compression mode : Lossy
    Stream size : 38.7 MiB (3%)
    Title : IsoMedia File Produced by Google, 5-11-2011
    Encoded date : UTC 2013-09-24 16:02:03
    Tagged date : UTC 2013-09-24 16:06:26
    Скачать .torrent

    Скачать торрент-файл бесплатно и на максимальной скорости!

    Как скачивать? · Что такое торрент? · Рейтинг и ограничения

    !ВНИМАНИЕ!
    Сайт не распространяет и не хранит электронные версии произведений, а занимается лишь лишь предоставлением доступа к создаваемому пользователями каталогу ссылок на торрент-файлы, которые содержат только списки хеш-сумм, убедительная просьба с жалобами обращаться напрямую к пользователю. Файлы для обмена на трекере предоставлены пользователями сайта, и администрация не несёт ответственности за их содержание. Просьба не заливать файлы, защищенные авторскими правами, а также файлы нелегального содержания!

    [Профиль] [ЛС]
    Показать сообщения:    
    Ответить на тему

    Текущее время: Сегодня, в 12:29

    Часовой пояс: GMT + 2



    Вы не можете начинать темы
    Вы не можете отвечать на сообщения
    Вы не можете редактировать свои сообщения
    Вы не можете удалять свои сообщения
    Вы не можете голосовать в опросах
    Вы не можете прикреплять файлы к сообщениям
    Вы не можете скачивать файлы