BitTorrentTracker PerecTracker.org
BitTorrentTracker PerecTracker.org
    
Регистрация  ·  Вход
 
 · 
Забыли пароль?

  • Безумный Макс 3: Под куполом грома / Mad Max Beyond Thunderdome (Джордж Миллер / George Miller, Джордж Огилве / George Ogilvie) [1985, США, Австралия, боевик, приключения, BDRip] Dub CEE

    Ответить на тему
     
    Автор Сообщение

    Columb

    Создавать темы 06-Окт-2013 10:27

           

    [Цитировать]

    Безумный Макс 3: Под куполом грома / Mad Max Beyond Thunderdome
    «Входят двое, выходит только один.»
    -Страна: США, Австралия / Kennedy Miller Productions
    Жанр: боевик, приключения
    Год выпуска: 1985
    Продолжительность: 01:46:58
    Перевод: Профессиональный (дублированный) лицензия CEE
    Cубтитры: нет
    Режиссёры: Джордж Миллер / George Miller, Джордж Огилве / George Ogilvie
    В ролях: Мэл Гибсон, Тина Тёрнер, Брюс Спенс, Фрэнк Тринг, Анджело Росситто, Роберт Грубб, Джастин Кларк, Тушка Берген, Адам Кокберн, Пол Ларссон, Джордж Спартелс.
    Описание: В городе Батертауне правит коварная властительница Энтити. Для укрепления своей власти она пытается использовать Макса, непревзойденного мастера дорожных схваток. Но теперь завораживающую череду автомобильных разборок под испепеляющим солнцем начинают сменять невероятные рукопашные бои.-Рейтинг
    imdb.com: 6.10 (56 730)
    kinopoisk.ru: 6.586 (4 810)
    MPAA: - детям до 13 лет просмотр не желателен-Сэмпл: http://multi-up.com/875798-Качество видео: BDRip
    Формат видео: AVI
    Видео: XviD build 65, 720x304 (2.37:1), 23.976 fps, ~1565 kbps avg, 0.298 bit/pixel
    Аудио: 48 kHz, AC3 Dolby Digital, 3/2 (L,C,R,l,r) + LFE ch, ~384 kbps avg (Dub)-

    MediaInfo

    General
    Complete name : D\Mad.Max.Beyond.Thunderdome.1985.Dub.BDRip.1,46Gb.XviD.AC3.avi
    Format : AVI
    Format/Info : Audio Video Interleave
    File size : 1.46 GiB
    Duration : 1h 46mn
    Overall bit rate : 1 958 Kbps
    Writing application : VirtualDubModRus 1.5.10.2 (build 2542/release)
    Writing library : VirtualDubMod build 2542/release
    Video
    ID : 0
    Format : MPEG-4 Visual
    Format profile : Advanced Simple@L5
    Format settings, BVOP : 1
    Format settings, QPel : No
    Format settings, GMC : No warppoints
    Format settings, Matrix : Custom
    Codec ID : XVID
    Codec ID/Hint : XviD
    Duration : 1h 46mn
    Bit rate : 1 565 Kbps
    Width : 720 pixels
    Height : 304 pixels
    Display aspect ratio : 2.35:1
    Frame rate : 23.976 fps
    Color space : YUV
    Chroma subsampling : 4:2:0
    Bit depth : 8 bits
    Scan type : Progressive
    Compression mode : Lossy
    Bits/(Pixel*Frame) : 0.298
    Stream size : 1.17 GiB (80%)
    Writing library : XviD 65
    Audio
    ID : 1
    Format : AC-3
    Format/Info : Audio Coding 3
    Mode extension : CM (complete main)
    Format settings, Endianness : Big
    Codec ID : 2000
    Duration : 1h 46mn
    Bit rate mode : Constant
    Bit rate : 384 Kbps
    Channel(s) : 6 channels
    Channel positions : Front: L C R, Side: L R, LFE
    Sampling rate : 48.0 KHz
    Bit depth : 16 bits
    Compression mode : Lossy
    Stream size : 294 MiB (20%)
    Alignment : Split accross interleaves
    Interleave, duration : 42 ms (1.00 video frame)
    Interleave, preload duration : 500 ms
    Title : Dub

    Скриншоты

    Скачать .torrent

    Скачать торрент-файл бесплатно и на максимальной скорости!

    Как скачивать? · Что такое торрент? · Рейтинг и ограничения

    !ВНИМАНИЕ!
    Сайт не распространяет и не хранит электронные версии произведений, а занимается лишь лишь предоставлением доступа к создаваемому пользователями каталогу ссылок на торрент-файлы, которые содержат только списки хеш-сумм, убедительная просьба с жалобами обращаться напрямую к пользователю. Файлы для обмена на трекере предоставлены пользователями сайта, и администрация не несёт ответственности за их содержание. Просьба не заливать файлы, защищенные авторскими правами, а также файлы нелегального содержания!

    [Профиль] [ЛС]
    Показать сообщения:    
    Ответить на тему

    Текущее время: Сегодня, в 22:09

    Часовой пояс: GMT + 2



    Вы не можете начинать темы
    Вы не можете отвечать на сообщения
    Вы не можете редактировать свои сообщения
    Вы не можете удалять свои сообщения
    Вы не можете голосовать в опросах
    Вы не можете прикреплять файлы к сообщениям
    Вы не можете скачивать файлы