BitTorrentTracker PerecTracker.org
BitTorrentTracker PerecTracker.org
    
Регистрация  ·  Вход
 
 · 
Забыли пароль?

  • (POP) Steve Winwood - Chronicles - 1987, (image+.cue), lossless

    Ответить на тему
     
    Автор Сообщение

    Columb

    Создавать темы 06-Окт-2013 07:16

           

    [Цитировать]

    Steve Winwood / Chronicles
    Жанр: POP
    Страна-производитель диска: US
    Год издания: 1987
    Издатель (лейбл): Island
    Номер по каталогу: 9 25660-2
    Страна: GB
    Аудиокодек: APE (*.ape)
    Тип рипа: image+.cue
    Битрейт аудио: lossless
    Продолжительность: 54:55
    Источник (релизер): Я
    Наличие сканов в содержимом раздачи: да
    Треклист:
    01. Wake Me Up On Judgement Day
    02. While You See A Chance
    03. Vacant Chair
    04. Help Me Angel
    05. My Love's Leavin'
    06. Valerie
    07. Arc Of A Diver
    08. Higher Love
    09. Spanish Dancer
    10. Talking Back To The Night

    Лог создания рипа

    Exact Audio Copy V1.0 beta 3 from 29. August 2011
    EAC extraction logfile from 5. October 2013, 18:04
    Steve Winwood / Chronicles
    Used drive : ATAPI iHAS124 B Adapter: 1 ID: 1
    Read mode : SecureUtilize accurate stream : YesDefeat audio cache : YesMake use of C2 pointers : No
    Read offset correction : 6Overread into Lead-In and Lead-Out : NoFill up missing offset samples with silence : YesDelete leading and trailing silent blocks : NoNull samples used in CRC calculations : YesUsed interface : Native Win32 interface for Win NT & 2000
    Used output format : Monkey's Audio Lossless EncoderSelected bitrate : Extra High Lossless CompressionQuality : HighAdd ID3 tag : NoCommand line compressor : C:\Program Files\Monkey's Audio\MAC.exe
    TOC of the extracted CD
    Track | Start | Length | Start sector | End sector --------------------------------------------------------- 1 | 0:00.00 | 5:51.52 | 0 | 26376 2 | 5:51.52 | 5:11.40 | 26377 | 49741 3 | 11:03.17 | 6:54.58 | 49742 | 80849 4 | 17:58.00 | 4:59.47 | 80850 | 103321 5 | 22:57.47 | 5:20.28 | 103322 | 127349 6 | 28:18.00 | 4:07.22 | 127350 | 145896 7 | 32:25.22 | 5:29.33 | 145897 | 170604 8 | 37:54.55 | 5:49.02 | 170605 | 196781 9 | 43:43.57 | 5:58.60 | 196782 | 223691 10 | 49:42.42 | 5:39.65 | 223692 | 249181
    Range status and errors
    Selected range
    Filename C:\Torrent\Steve Winwood - Chronicles (1987)\Steve Winwood - Chronicles.wav
    Peak level 99.9 % Extraction speed 9.1 X Range quality 100.0 % Test CRC DD37D4A3 Copy CRC DD37D4A3 Copy OK
    No errors occurred
    End of status report
    ==== Log checksum 4F2359845631412842785967AD703ABE45FE5FFA48F4E2A17D57CEDCA8519AE5 ====
    Скачать .torrent

    Скачать торрент-файл бесплатно и на максимальной скорости!

    Как скачивать? · Что такое торрент? · Рейтинг и ограничения

    !ВНИМАНИЕ!
    Сайт не распространяет и не хранит электронные версии произведений, а занимается лишь лишь предоставлением доступа к создаваемому пользователями каталогу ссылок на торрент-файлы, которые содержат только списки хеш-сумм, убедительная просьба с жалобами обращаться напрямую к пользователю. Файлы для обмена на трекере предоставлены пользователями сайта, и администрация не несёт ответственности за их содержание. Просьба не заливать файлы, защищенные авторскими правами, а также файлы нелегального содержания!

    [Профиль] [ЛС]
    Показать сообщения:    
    Ответить на тему

    Текущее время: Сегодня, в 09:11

    Часовой пояс: GMT + 2



    Вы не можете начинать темы
    Вы не можете отвечать на сообщения
    Вы не можете редактировать свои сообщения
    Вы не можете удалять свои сообщения
    Вы не можете голосовать в опросах
    Вы не можете прикреплять файлы к сообщениям
    Вы не можете скачивать файлы