Register  ·  Log in
Forgot password?

  • Обливион / Oblivion (Джозеф Косински / Joseph Kosinski) [2013, США, фантастика, боевик, триллер, приключения, мелодрама, HDRip] Dub

    Reply to topic
    Author Message


    Post 05-Oct-2013 21:45



    Обливион / Oblivion-Страна: США
    Жанр: фантастика, боевик, триллер, приключения, мелодрама
    Год выпуска: 2013
    Продолжительность: 02:04:42
    Перевод: Профессиональный (дублированный)
    Cубтитры: нет-Режиссер: Джозеф Косински / Joseph Kosinski
    В ролях: Том Круз, Ольга Куриленко, Андреа Райзборо, Морган Фриман, Николай Костер-Вальдау, Мелисса Лео, Зои Белл, Эбигейл Лоу, Изабель Лоу, Дэвид Мэдисон.
    Описание: Земля, пережившая войну с инопланетными захватчиками, опустела; остатки человечества готовятся покинуть непригодную для жизни планету. Главный герой - техник по обслуживанию дронов - находит разбившийся корабль NASA, команда которого погибает у него на глазах. Ему удаётся спасти лишь одну женщину - и вскоре он понимает, что это перевернёт его жизнь.-Автор рипа: Scarabey
    Качество видео: HDRip
    Формат видео: AVI | Sample
    Видео: 720x304 (2.37:1), 23.976 fps, XviD build 73 ~1465 kbps avg, 0.28 bit/pixel
    Аудио: 48 kHz, AC3 Dolby Digital, 2/0 (L,R) ch, ~192 kbps



    Format : AVI
    Format/Info : Audio Video Interleave
    File size : 1.45 GiB
    Duration : 2h 4mn
    Overall bit rate : 1 667 Kbps
    Writing application : VirtualDubMod (build 2540/release)
    Writing library : VirtualDubMod build 2540/release
    ID : 0
    Format : MPEG-4 Visual
    Format profile : Advanced Simple@L5
    Format settings, BVOP : Yes
    Format settings, QPel : No
    Format settings, GMC : No warppoints
    Format settings, Matrix : Custom
    Codec ID : XVID
    Codec ID/Hint : XviD
    Duration : 2h 4mn
    Bit rate : 1 466 Kbps
    Width : 720 pixels
    Height : 304 pixels
    Display aspect ratio : 2.35:1
    Frame rate : 23.976 fps
    Color space : YUV
    Chroma subsampling : 4:2:0
    Bit depth : 8 bits
    Scan type : Progressive
    Bits/(Pixel*Frame) : 0.279
    Stream size : 1.28 GiB (88%)
    Writing library : XviD 73
    ID : 1
    Format : AC-3
    Format/Info : Audio Coding 3
    Mode extension : CM (complete main)
    Codec ID : 2000
    Duration : 2h 4mn
    Bit rate mode : Constant
    Bit rate : 192 Kbps
    Channel(s) : 2 channels
    Channel positions : Front: L R
    Sampling rate : 48.0 KHz
    Bit depth : 16 bits
    Stream size : 171 MiB (12%)
    Alignment : Aligned on interleaves
    Interleave, duration : 42 ms (1.00 video frame)
    Interleave, preload duration : 512 ms
    Download .torrent

    Download free and at maximum speed!

    How to Download? · What is a torrent? · Ratings and Limitations

    The site does not extend and does not store electronic(digital) versions of products, and only gives access to a reference catalogue created by users on torrent-files which contain only lists of the hash-sums, the earnest entreaty, with complaints(abuse) to access directly to the user. Files for an exchange on tracker are given by users of a site, and the administration does not bear the responsibility for their maintenance. The request to not fill in the files protected by copyrights, and also files of the illegal maintenance!

    [Profile] [PM]


    Post 24-Nov-2013 00:20 (after 1 month 18 days)


    Топик был перенесен из форума Горячие новинки 2013 в форум Зарубежные Фильмы (Новинки)


    Как бы ты высоко не летал, не забывай, с кем ты ползал..


    Post 12-Jan-2014 20:06 (after 3 months 6 days)


    Топик был перенесен из форума Зарубежные Фильмы (Новинки) в форум Фильмы 2011-2013


    Как бы ты высоко не летал, не забывай, с кем ты ползал..
    Display posts from previous:    
    Reply to topic

    The time now is: Today 08:03

    All times are GMT + 3 Hours

    You cannot post new topics in this forum
    You cannot reply to topics in this forum
    You cannot edit your posts in this forum
    You cannot delete your posts in this forum
    You cannot vote in polls in this forum
    You cannot attach files in this forum
    You cannot download files in this forum