BitTorrentTracker PerecTracker.org
BitTorrentTracker PerecTracker.org
    
Регистрация  ·  Вход
 
 · 
Забыли пароль?

  • Любимая, будь счастлива… / Priyathama Neevachata Kushalama (Тринадха Рао Наккина / Trinatha Rao Nakkina ) [2013, Индия, Мелодрама, DVDRip] Sub Rus

    Ответить на тему
     
    Автор Сообщение

    Columb

    Создавать темы 05-Окт-2013 18:02

           

    [Цитировать]

    ***Эксклюзивная премьера!***Любимая, будь счастлива… / Priyathama Neevachata KushalamaСтрана: Индия
    Жанр: Мелодрама
    Год выпуска: 2013
    Продолжительность: 02:07:09
    Перевод: Субтитры
    Cубтитры: русские
    Оригинальная аудиодорожка: Телугу
    Режиссер: Тринадха Рао Наккина / Trinatha Rao Nakkina
    В ролях: Варун Сандеш, Комал Джха, Хасика, Рао Рамеш, Субхалекха Судхакар, Рагху Бабу, Дханрадж, Агути Прасад
    Описание: Варун (Варун Сандеш) владеет небольшим магазином в Раджамандри. Кундана (Комал Джа), студентка колледжа, влюбляется в Варуна с первого взгляда и признается ему в любви. Варун сначала отказывает девушке, но потом принимает её. Когда Кундана получает работу в США, Варун просит ее отказаться. Почему Варун вынуждает Кундану остаться в Индии? Ответы спрятаны в прошлом...
    Комментарии переводчика:
    Бханг (хинди भंग, панджаби ਭੰਗ — «правила», «любовь») — психотропное средство, получаемое из мужских и опыленных женских растений индийской конопли. На Индостане используется, как для питья, так и для курения при различных религиозных церемониях. Процедура курения бханга занимает особое место среди обычаев сикхов, а также в мусульманских традициях субконтинента.
    Доп. информация:
    Сэмпл / Sample
    Перевод и редакция:net
    Благодарность: DaKota (за помощь в описании)
    Риппер:randy23
    Релиз-группа:
    Не использовать субтитры без разрешения переводчика, выкладывать на других трекерах, коммерческое распространение также не предусмотрено.
    Качество видео: DVDRip
    Формат видео: AVI
    Видео: XviD, 720х304, 23.976 fps, 1243 kbps
    Аудио: AC3, 48 kHz, 5.1 (6 ch), 384 kbps
    Формат субтитров: hardsub (неотключаемые)

    MediaInfo

    Общее
    Полное имя : E:\Downloads\MOVIES\BWT\Vremeno\Lyubimaya.Budy.Scyastliva.2013.DVDRip.XviD.BwTorrents.avi
    Формат : AVI
    Формат/Информация : Audio Video Interleave
    Размер файла : 1,45 Гбайт
    Продолжительность : 2 ч. 7 м.
    Общий поток : 1637 Кбит/сек
    Программа кодирования : VirtualDubMod 1.5.10.3 | www.virtualdub-fr.org || (build 2550/release)
    Библиотека кодирования : VirtualDubMod build 2550/release
    Видео
    Идентификатор : 0
    Формат : MPEG-4 Visual
    Профиль формата : Advanced Simple@L5
    Параметр BVOP формата : 2
    Параметр QPel формата : Нет
    Параметр GMC формата : Без точки перехода
    Параметр матрицы формата : Default (MPEG)
    Идентификатор кодека : XVID
    Идентификатор кодека/Подсказка : XviD
    Продолжительность : 2 ч. 7 м.
    Битрейт : 1244 Кбит/сек
    Ширина : 720 пикселей
    Высота : 304 пикселя
    Соотношение сторон : 2,35:1
    Частота кадров : 23,976 кадра/сек
    Цветовое пространство : YUV
    Субдискретизация насыщенности : 4:2:0
    Битовая глубина : 8 бит
    Тип развёртки : Прогрессивная
    Метод сжатия : С потерями
    Бит/(Пиксели*Кадры) : 0.237
    Размер потока : 1,10 Гбайт (76%)
    Библиотека кодирования : XviD 63
    Аудио
    Идентификатор : 1
    Формат : AC-3
    Формат/Информация : Audio Coding 3
    Расширение режима : CM (complete main)
    Параметр Endianness формата : Big
    Идентификатор кодека : 2000
    Продолжительность : 2 ч. 7 м.
    Вид битрейта : Постоянный
    Битрейт : 384 Кбит/сек
    Каналы : 6 каналов
    Расположение каналов : Front: L C R, Side: L R, LFE
    Частота : 48,0 КГц
    Битовая глубина : 16 бит
    Метод сжатия : С потерями
    Размер потока : 349 Мбайт (23%)
    Выравнивание : Разделение по промежуткам
    Продолжительность промежутка : 42 мс. (1,00 видеокадр)
    Время предзагрузки промежутка : 500 мс.

    Скриншот c названием фильма

    Скриншоты







    Скачать .torrent

    Скачать торрент-файл бесплатно и на максимальной скорости!

    Как скачивать? · Что такое торрент? · Рейтинг и ограничения

    !ВНИМАНИЕ!
    Сайт не распространяет и не хранит электронные версии произведений, а занимается лишь лишь предоставлением доступа к создаваемому пользователями каталогу ссылок на торрент-файлы, которые содержат только списки хеш-сумм, убедительная просьба с жалобами обращаться напрямую к пользователю. Файлы для обмена на трекере предоставлены пользователями сайта, и администрация не несёт ответственности за их содержание. Просьба не заливать файлы, защищенные авторскими правами, а также файлы нелегального содержания!

    [Профиль] [ЛС]
    Показать сообщения:    
    Ответить на тему

    Текущее время: Сегодня, в 19:25

    Часовой пояс: GMT + 2



    Вы не можете начинать темы
    Вы не можете отвечать на сообщения
    Вы не можете редактировать свои сообщения
    Вы не можете удалять свои сообщения
    Вы не можете голосовать в опросах
    Вы не можете прикреплять файлы к сообщениям
    Вы не можете скачивать файлы