BitTorrentTracker PerecTracker.org
BitTorrentTracker PerecTracker.org
    
Регистрация  ·  Вход
 
 · 
Забыли пароль?

  • Всё началось в Харбине (1-8 серии из 8) (Лео Зисман) [2012, драма, история, HDTVRip 720p]

    Ответить на тему
     
    Автор Сообщение

    Columb

    Создавать темы 05-Окт-2013 15:07

           

    [Цитировать]

    Всё началось в Харбине
    Выпущено: Россия, Кинокомпания "Кобура"
    Жанр: драма, история
    Год выпуска: 2012
    Продолжительность: 00:44:00
    Субтитры: нет
    Режиссер: Лео Зисман
    В ролях: Данила Козловский, Анна Чиповская, Владимир Епифанцев, Дина Корзун, Игорь Иванов, Филипп Ершов, Никита Ефремов, Ирина Розанова, Игорь Скляр, Эрнст Романов, Александр Вонтов, Владимир Богданов, Сергей Занин, Валерий Дегтярь, Наталья Ткаченко, Александр Удалов, Александр Петров, Михаил Елисеев, Геннадий Меньшиков, Дмитрий Лебедев
    Описание: По мотивам книги воспоминаний Бориса Христенко "Повесть о пережитом". События фильма «Все началось в Харбине...» разворачиваются сначала на территории Китая, в Маньчжурии, затем переносятся в СССР, имеют обширный географический ореол - от Харбина до Ленинграда, и охватывают период времени с 1929 по 1956-й годы. В основе сюжета сложная, полная драматических событий судьба человека — Бориса, сына сотрудника Китайско-Восточной железной дороги...

    Автор рипа / записи: fanatus
    Исходник: Запись с телеканала РОССИЯ HD
    Качество: HDTVRip 720p
    Формат: MKV
    Видео кодек: H.264
    Аудио кодек: AC3
    Видео: MPEG-4 AVC, 3333 kbps , 1280x720 (16:9), 25.000 fps, 0.145 bit/pixel
    Аудио: AC3, 2 ch, 48 kHz, 192 kbps

    MediaInfo

    General
    Unique ID : 238160069520867348048928485016045950108 (0xB32BF60079C6B58FB8BC8AA0AFF1149C)
    Complete name : F:\Vse nachalos v Harbine.(1-8.seriji.iz.8).2013.HDTVRip.720p.fanatus\1 serija.mkv
    Format : Matroska
    Format version : Version 2
    File size : 1.08 GiB
    Duration : 43mn 53s
    Overall bit rate : 3 524 Kbps
    Movie name : Vse nachalos v Harbine (2013) - fanatus
    Encoded date : UTC 2013-10-01 18:07:41
    Writing application : mkvmerge v3.4.0 ('Rapunzel') сборка от May 15 2010 09:38:20
    Writing library : libebml v0.8.0 + libmatroska v0.9.0
    Video
    ID : 1
    Format : AVC
    Format/Info : Advanced Video Codec
    Format profile : High@L4.1
    Format settings, CABAC : Yes
    Format settings, ReFrames : 9 frames
    Codec ID : V_MPEG4/ISO/AVC
    Duration : 43mn 53s
    Bit rate : 3 333 Kbps
    Width : 1 280 pixels
    Height : 720 pixels
    Display aspect ratio : 16:9
    Frame rate : 25.000 fps
    Color space : YUV
    Chroma subsampling : 4:2:0
    Bit depth : 8 bits
    Scan type : Progressive
    Bits/(Pixel*Frame) : 0.145
    Stream size : 1 024 MiB (93%)
    Title : 1 serija
    Writing library : x264 core 138 r2358 9e941d1
    Encoding settings : cabac=1 / ref=9 / deblock=1:-2:-2 / analyse=0x3:0x113 / me=umh / subme=10 / psy=1 / psy_rd=1.00:0.10 / mixed_ref=1 / me_range=32 / chroma_me=1 / trellis=2 / 8x8dct=1 / cqm=0 / deadzone=21,11 / fast_pskip=0 / chroma_qp_offset=-3 / threads=16 / lookahead_threads=2 / sliced_threads=0 / nr=0 / decimate=0 / interlaced=0 / bluray_compat=0 / constrained_intra=0 / bframes=9 / b_pyramid=2 / b_adapt=2 / b_bias=0 / direct=3 / weightb=1 / open_gop=0 / weightp=2 / keyint=250 / keyint_min=25 / scenecut=40 / intra_refresh=0 / rc=2pass / mbtree=0 / bitrate=3333 / ratetol=1.0 / qcomp=0.65 / qpmin=0 / qpmax=69 / qpstep=4 / cplxblur=20.0 / qblur=0.5 / ip_ratio=1.40 / pb_ratio=1.30 / aq=1:0.90
    Language : Russian
    Default : Yes
    Forced : No
    Matrix coefficients : BT.709-5, BT.1361, IEC 61966-2-4 709, SMPTE RP177
    Audio
    ID : 2
    Format : AC-3
    Format/Info : Audio Coding 3
    Mode extension : CM (complete main)
    Format settings, Endianness : Big
    Codec ID : A_AC3
    Duration : 43mn 53s
    Bit rate mode : Constant
    Bit rate : 192 Kbps
    Channel(s) : 2 channels
    Channel positions : Front: L R
    Sampling rate : 48.0 KHz
    Bit depth : 16 bits
    Compression mode : Lossy
    Stream size : 60.3 MiB (5%)
    Language : Russian
    Default : Yes
    Forced : No

    Скриншот c названием фильма

    Скриншоты

    Скачать .torrent

    Скачать торрент-файл бесплатно и на максимальной скорости!

    Как скачивать? · Что такое торрент? · Рейтинг и ограничения

    !ВНИМАНИЕ!
    Сайт не распространяет и не хранит электронные версии произведений, а занимается лишь лишь предоставлением доступа к создаваемому пользователями каталогу ссылок на торрент-файлы, которые содержат только списки хеш-сумм, убедительная просьба с жалобами обращаться напрямую к пользователю. Файлы для обмена на трекере предоставлены пользователями сайта, и администрация не несёт ответственности за их содержание. Просьба не заливать файлы, защищенные авторскими правами, а также файлы нелегального содержания!

    [Профиль] [ЛС]
    Показать сообщения:    
    Ответить на тему

    Текущее время: Сегодня, в 12:29

    Часовой пояс: GMT + 2



    Вы не можете начинать темы
    Вы не можете отвечать на сообщения
    Вы не можете редактировать свои сообщения
    Вы не можете удалять свои сообщения
    Вы не можете голосовать в опросах
    Вы не можете прикреплять файлы к сообщениям
    Вы не можете скачивать файлы