BitTorrentTracker PerecTracker.org
BitTorrentTracker PerecTracker.org
    
Регистрация  ·  Вход
 
 · 
Забыли пароль?

  • Третий лишний / Ted (Сет МакФарлейн / Seth MacFarlane) [2012, США, фэнтези, комедия, HDRip] [Unrated] VO

    Ответить на тему
     
    Автор Сообщение

    Columb

    Создавать темы 05-Окт-2013 15:04

           

    [Цитировать]

    Третий лишний / Ted / Unrated-Страна: США
    Жанр: фэнтези, комедия
    Год выпуска: 2012
    Продолжительность: 01:52:15
    Перевод: Одноголосый закадровый (Дасевич по переводу Гоблина)
    Cубтитры: нет-Режиссер: Сет МакФарлейн / Seth MacFarlane
    В ролях: Марк Уолберг, Мила Кунис, Сет МакФарлейн, Джоэль МакХэйл, Джованни Рибизи, Патрик Варбертон, Мэтт Уолш, Джессика Барт, Аэдин Минкс, Билл Смитрович.
    Описание: Джон влюблен в красавицу Лори, у него отличная работа и большие планы на будущее. Но в их отношения вмешивается третий, давний друг Джона — Тед. Он отрывается сутки напролет, предпочитает случайные связи и не желает терять друга. Но никто на самом деле не знает на что он способен, ведь Тед — большой плюшевый медведь.-Автор рипа: Scarabey
    Качество видео: HDRip
    Формат видео: AVI | Sample
    Видео: 592x320 (1.85:1), 23.976 fps, XviD build 50 ~787 kbps avg, 0.17 bit/pixel
    Аудио: 48 kHz, MPEG Layer 3, 2 ch, ~128.00 kbps avg

    Скриншоты

    Медиаинфо

    Format : AVI
    Format/Info : Audio Video Interleave
    File size : 743 MiB
    Duration : 1h 52mn
    Overall bit rate : 925 Kbps
    Writing application : VirtualDubMod 1.5.10.2 (build 2540/release)
    Writing library : VirtualDubMod build 2540/release
    Video
    ID : 0
    Format : MPEG-4 Visual
    Format profile : Advanced Simple@L5
    Format settings, BVOP : Yes
    Format settings, QPel : No
    Format settings, GMC : No warppoints
    Format settings, Matrix : Custom
    Codec ID : XVID
    Codec ID/Hint : XviD
    Duration : 1h 52mn
    Bit rate : 788 Kbps
    Width : 592 pixels
    Height : 320 pixels
    Display aspect ratio : 1.850
    Frame rate : 23.976 fps
    Color space : YUV
    Chroma subsampling : 4:2:0
    Bit depth : 8 bits
    Scan type : Progressive
    Bits/(Pixel*Frame) : 0.173
    Stream size : 633 MiB (85%)
    Writing library : XviD 1.2.1 (UTC 2008-12-04)
    Audio
    ID : 1
    Format : MPEG Audio
    Format version : Version 1
    Format profile : Layer 3
    Codec ID : 55
    Codec ID/Hint : MP3
    Duration : 1h 52mn
    Bit rate mode : Constant
    Bit rate : 128 Kbps
    Channel(s) : 2 channels
    Sampling rate : 48.0 KHz
    Stream size : 103 MiB (14%)
    Alignment : Aligned on interleaves
    Interleave, duration : 42 ms (1.00 video frame)
    Interleave, preload duration : 504 ms
    Writing library : LAME3.97
    Encoding settings : -m s -V 4 -q 2 -lowpass 17 -b 128
    Скачать .torrent

    Скачать торрент-файл бесплатно и на максимальной скорости!

    Как скачивать? · Что такое торрент? · Рейтинг и ограничения

    !ВНИМАНИЕ!
    Сайт не распространяет и не хранит электронные версии произведений, а занимается лишь лишь предоставлением доступа к создаваемому пользователями каталогу ссылок на торрент-файлы, которые содержат только списки хеш-сумм, убедительная просьба с жалобами обращаться напрямую к пользователю. Файлы для обмена на трекере предоставлены пользователями сайта, и администрация не несёт ответственности за их содержание. Просьба не заливать файлы, защищенные авторскими правами, а также файлы нелегального содержания!

    [Профиль] [ЛС]
    Показать сообщения:    
    Ответить на тему

    Текущее время: Сегодня, в 11:05

    Часовой пояс: GMT + 2



    Вы не можете начинать темы
    Вы не можете отвечать на сообщения
    Вы не можете редактировать свои сообщения
    Вы не можете удалять свои сообщения
    Вы не можете голосовать в опросах
    Вы не можете прикреплять файлы к сообщениям
    Вы не можете скачивать файлы