BitTorrentTracker PerecTracker.org
BitTorrentTracker PerecTracker.org
    
Регистрация  ·  Вход
 
 · 
Забыли пароль?

  • [Pluralsight] Your Database Is Your Friend [2013, ENG]

    Ответить на тему
     
    Автор Сообщение

    Columb

    Создавать темы 05-Окт-2013 15:01

           

    [Цитировать]

    Your Database Is Your Friend
    Год выпуска: 2013
    Производитель: Pluralsight
    Сайт производителя: http://pluralsight.com/
    Автор: Xavier Shay
    Продолжительность: 1h 58m
    Тип раздаваемого материала: Видеоклипы
    Язык: Английский
    Описание: Learn how to use your database to make your Ruby on Rails applications rock solid.
    Узнайте, как использовать базу данных, чтобы сделать вашу Рубин на рельсы твердой скале приложений.[brilliantly translated by http://translate.google.com/ ]

    Содержание

    │ database-your-friend.zip

    ├───01. Introduction
    │ 01. What is this .wmv
    │ 02. Logistics.wmv

    ├───02. Data Modelling
    │ 01. Introduction.wmv
    │ 02. The Unexpected Nil.wmv
    │ 03. Nil versus Empty String.wmv
    │ 04. ActiveRecord Validation.wmv
    │ 05. Not Nil Database Migration.wmv
    │ 06. The Unexpected Nil Recap.wmv
    │ 07. The Missing Parent.wmv
    │ 08. ActiveRecord has_many options.wmv
    │ 09. Foreign Keys.wmv
    │ 10. Cascading Deletes.wmv
    │ 11. Schema.rb and Foreigner gem.wmv
    │ 12. The Missing Parent Recap.wmv
    │ 13. Duplicate Data.wmv
    │ 14. Resolving Duplicates.wmv
    │ 15. Retrying Duplicate Exceptions.wmv
    │ 16. One-to-one Relationships.wmv
    │ 17. Duplicate Data Recap.wmv
    │ 18. Polymorphic Associations.wmv
    │ 19. Converting to Separate Tables.wmv
    │ 20. Reactive Integrity Tests.wmv
    │ 21. Wrapping Up.wmv

    ├───03. Concurrency
    │ 01. Introduction.wmv
    │ 02. A Development Environment for Concurrency.wmv
    │ 03. Concurrent Requests Primer.wmv
    │ 04. Concurrency and Unique Constraints.wmv
    │ 05. Concurrency and Foreign Keys.wmv
    │ 06. Thinking Concurrently.wmv
    │ 07. Optimistic Locking Introduction.wmv
    │ 08. Optimistic Locking with ActiveRecord.wmv
    │ 09. Counters.wmv
    │ 10. Optimistic Locking Recap.wmv
    │ 11. Pessimistic Locking.wmv
    │ 12. Pessimistic Locking Recap.wmv
    │ 13. Concurrency in the Real World.wmv
    │ 14. Combined Locking Example.wmv
    │ 15. Acts as List.wmv
    │ 16. Isolation Levels.wmv
    │ 17. Summary.wmv

    ├───04. Reporting
    │ 01. What is reporting .wmv
    │ 02. Introduction to Star Schemas.wmv
    │ 03. Creating a Star Schema.wmv
    │ 04. Using a Star Schema.wmv
    │ 05. Calendar Tables.wmv
    │ 06. Multi-valued Dimensions Creating.wmv
    │ 07. Multi-valued Dimensions Querying.wmv
    │ 08. Columnar Databases.wmv
    │ 09. Summary.wmv

    └───05. Appendix MySQL
    01. Introduction.wmv
    02. Handling Invalid Data.wmv
    03. InnoDB Locking.wmv
    04. Deadlocks.wmv
    05. Scan Locks.wmv
    06. Summary.wmv
    Файлы примеров: присутствуют
    Формат видео: WMV

    audio\video

    General
    Complete name : D:\01. What is this .wmv
    Format : Windows Media
    File size : 2.30 MiB
    Duration : 1mn 47s
    Overall bit rate mode : Variable
    Overall bit rate : 180 Kbps
    Maximum Overall bit rate : 211 Kbps
    Movie name : database-your-friend-m1,4,5
    Encoded date : UTC 2013-09-23 18:27:27.825
    Video
    ID : 2
    Format : VC-1
    Format profile : MP@HL
    Codec ID : WMV3
    Codec ID/Info : Windows Media Video 9
    Codec ID/Hint : WMV3
    Description of the codec : Windows Media Video 9
    Duration : 1mn 47s
    Bit rate mode : Variable
    Bit rate : 16.4 Kbps
    Width : 1 024 pixels
    Height : 768 pixels
    Display aspect ratio : 4:3
    Frame rate : 15.000 fps
    Color space : YUV
    Chroma subsampling : 4:2:0
    Bit depth : 8 bits
    Scan type : Progressive
    Compression mode : Lossy
    Bits/(Pixel*Frame) : 0.001
    Stream size : 214 KiB (9%)
    Language : English (US)
    Audio
    ID : 1
    Format : WMA
    Format version : Version 2
    Codec ID : 161
    Codec ID/Info : Windows Media Audio
    Description of the codec : Windows Media Audio 9.2 - 128 kbps, 44 kHz, stereo (A/V) 1-pass CBR
    Duration : 1mn 47s
    Bit rate mode : Constant
    Bit rate : 128 Kbps
    Channel(s) : 2 channels
    Sampling rate : 44.1 KHz
    Bit depth : 16 bits
    Stream size : 1.64 MiB (71%)
    Language : English (US)

    Скриншоты

    Скачать .torrent

    Скачать торрент-файл бесплатно и на максимальной скорости!

    Как скачивать? · Что такое торрент? · Рейтинг и ограничения

    !ВНИМАНИЕ!
    Сайт не распространяет и не хранит электронные версии произведений, а занимается лишь лишь предоставлением доступа к создаваемому пользователями каталогу ссылок на торрент-файлы, которые содержат только списки хеш-сумм, убедительная просьба с жалобами обращаться напрямую к пользователю. Файлы для обмена на трекере предоставлены пользователями сайта, и администрация не несёт ответственности за их содержание. Просьба не заливать файлы, защищенные авторскими правами, а также файлы нелегального содержания!

    [Профиль] [ЛС]
    Показать сообщения:    
    Ответить на тему

    Текущее время: Сегодня, в 09:06

    Часовой пояс: GMT + 2



    Вы не можете начинать темы
    Вы не можете отвечать на сообщения
    Вы не можете редактировать свои сообщения
    Вы не можете удалять свои сообщения
    Вы не можете голосовать в опросах
    Вы не можете прикреплять файлы к сообщениям
    Вы не можете скачивать файлы