BitTorrentTracker PerecTracker.org
BitTorrentTracker PerecTracker.org
    
Регистрация  ·  Вход
 
 · 
Забыли пароль?

  • Убойные сёрферы / Storm Surfers (Джастин МакМиллан / Justin McMillan, Кристофер Нелиус / Christopher Nelius) [2012, документальный, приключения, DVB] DVO (Позитив)

    Ответить на тему
     
    Автор Сообщение

    Columb

    Создавать темы 05-Окт-2013 13:48

           

    [Цитировать]

    Убойные сёрферы
    Storm Surfers-Год выпуска: 2012
    Страна: Австралия
    Жанр: документальный, приключения
    Продолжительность: 01:31:00
    Перевод: Профессиональный (двухголосый закадровый) (Фирма "Позитив" по заказу Телеагентства "Русский репортаж")
    Русские субтитры: нет
    Режиссер: Джастин МакМиллан / Justin McMillan, Кристофер Нелиус / Christopher Nelius
    В ролях: Том Кэррол / Tom Carroll, Росс Кларк-Джонс / Ross Clark-Jones, Бен Мэтсон / Ben Matson, Тони Коллетт / Toni Collette (voice)
    Описание: Проект, который демонстрирует вершины мастерства двух лучших серферов планеты. Для двукратного чемпиона мира Тома Кэррола и его ближайшего друга и соперника Росса Кларка-Джоунса океанские штормовые волны — не просто увлечение длиною в жизнь. Это вызов, который они бросают своему собственному страху. Но однажды метеоролог, гуру всех австралийских серфингистов, Бэн Мэтсон рассказывает им о волне, которую невозможно победить. Полет на волне высотой с небоскреб и длиной в расстояние между Москвой и Питером?
    Как подготовиться к такому? Мастера утверждают, что залог успеха не только в техническом совершенстве, но и в серьезной интеллектуальной подготовке. Между тем, человек — это всего-навсего человек. Инстинкт самосохранения нельзя победить. На ваших глазах Том и Росс пытаются совершить настоящий подвиг.
    Доп. информация: Запись со спутника (телеканал "Премьера").
    Награды: приз за лучший полнометражный документальный фильм AACTA Awards 2012; приз Зрительских симпатий за 2-е место в секции документальных фильмов Toronto International Film Festival 2012; приз за лучший полнометражный документальный фильм Australian Film Institute 2013 + 2 номинации (лучший оператор, монтаж); приз Australian Surfing Awards 2013 за лучший фильм о сёрфинге.
    Информация: http://www.imdb.com/title/tt1754546/
    Сэмпл: http://multi-up.com/909583
    качество: DVB
    формат: MPEG-PS
    Видео: MPEG Video 2, 720x576@1024x576 (16:9), 25 fps, ~3431 kbps avg, 0.331 bit/pixel
    Аудио: 48 kHz, MPEG Audio 2, 2 ch, ~192.00 kbps avg

    MediaInfo

    Полное имя : H:\My Torrents\[apreder]Storm_Surfers(2012)DVB.mpgФормат : MPEG-PSРазмер файла : 2,35 ГбайтПродолжительность : 1 ч. 31 м.Режим общего битрейта : ПеременныйОбщий поток : 3696 Кбит/сек
    ВидеоИдентификатор : 224 (0xE0)Формат : MPEG VideoВерсия формата : Version 2Профиль формата : Main@MainПараметр BVOP формата : ДаПараметр матрицы формата : ВыборочнаяПараметр GOP формата : VariableПродолжительность : 1 ч. 31 м.Вид битрейта : ПеременныйБитрейт : 3431 Кбит/секШирина : 720 пикселейВысота : 576 пикселейСоотношение сторон : 16:9Частота кадров : 25,000 кадров/секСтандарт вещания : PALЦветовое пространство : YUVСубдискретизация насыщенности : 4:2:0Битовая глубина : 8 битТип развёртки : ЧересстрочнаяПорядок развёртки : Верхнее поле первоеМетод сжатия : С потерямиБит/(Пиксели*Кадры) : 0.331TimeCode_FirstFrame : 00:00:00:00TimeCode_Source : Group of pictures headerРазмер потока : 2,18 Гбайт (93%)
    АудиоИдентификатор : 192 (0xC0)Формат : MPEG AudioВерсия формата : Version 1Профиль формата : Layer 2Продолжительность : 1 ч. 31 м.Вид битрейта : ПостоянныйБитрейт : 192 Кбит/секКаналы : 2 каналаЧастота : 48,0 КГцМетод сжатия : С потерямиРазмер потока : 125 Мбайт (5%)

    Скриншоты


    Резервные скриншоты


    -
    Скачать .torrent

    Скачать торрент-файл бесплатно и на максимальной скорости!

    Как скачивать? · Что такое торрент? · Рейтинг и ограничения

    !ВНИМАНИЕ!
    Сайт не распространяет и не хранит электронные версии произведений, а занимается лишь лишь предоставлением доступа к создаваемому пользователями каталогу ссылок на торрент-файлы, которые содержат только списки хеш-сумм, убедительная просьба с жалобами обращаться напрямую к пользователю. Файлы для обмена на трекере предоставлены пользователями сайта, и администрация не несёт ответственности за их содержание. Просьба не заливать файлы, защищенные авторскими правами, а также файлы нелегального содержания!

    [Профиль] [ЛС]
    Показать сообщения:    
    Ответить на тему

    Текущее время: Сегодня, в 03:04

    Часовой пояс: GMT + 2



    Вы не можете начинать темы
    Вы не можете отвечать на сообщения
    Вы не можете редактировать свои сообщения
    Вы не можете удалять свои сообщения
    Вы не можете голосовать в опросах
    Вы не можете прикреплять файлы к сообщениям
    Вы не можете скачивать файлы