BitTorrentTracker PerecTracker.org
BitTorrentTracker PerecTracker.org
    
Регистрация  ·  Вход
 
 · 
Забыли пароль?

  • [Pluralsight] Parallel Computing with CUDA [2013, ENG]

    Ответить на тему
     
    Автор Сообщение

    Columb

    Создавать темы 05-Окт-2013 10:50

           

    [Цитировать]

    Parallel Computing with CUDA
    Год выпуска: 2013
    Производитель: Pluralsight
    Сайт производителя: http://pluralsight.com/
    Автор: Dmitri Nesteruk
    Продолжительность: 4h 12m
    Тип раздаваемого материала: Видеоклипы
    Язык: Английский
    Описание: An entry-level course on CUDA - a GPU programming technology from NVIDIA.
    Начального уровня курс по CUDA - технологии программирования GPU от NVIDIA.

    Содержание

    │ parallel-computing-cuda.zip

    ├───01. GPU Architecture Overview
    │ 01. Course Outline.wmv
    │ 02. History of GPU Computation.wmv
    │ 03. GPGPU Frameworks.wmv
    │ 04. Graphics Processor Architecture.wmv
    │ 05. Compute Capability.wmv
    │ 06. Choosing a Graphics Card.wmv

    ├───02. Tools of The Trade
    │ 01. Tools Overview.wmv
    │ 02. Using NSight.wmv
    │ 03. Running CUDA Apps.wmv
    │ 04. Debugging.wmv
    │ 05. Profiling.wmv

    ├───03. Introduction to CUDA C
    │ 01. Overview.wmv
    │ 02. Compilation Process.wmv
    │ 03. Hello, CUDA.wmv
    │ 04. Location Qualifiers.wmv
    │ 05. Execution Model.wmv
    │ 06. Grid and Block Dimensions.wmv
    │ 07. Error Handling.wmv
    │ 08. Device Introspection.wmv

    ├───04. Parallel Programming Patterns
    │ 01. Overview.wmv
    │ 02. Element Addressing.wmv
    │ 03. Map.wmv
    │ 04. Gather.wmv
    │ 05. Scatter.wmv
    │ 06. Reduce.wmv
    │ 07. Scan.wmv

    ├───05. The Many Types of Memory
    │ 01. Overview.wmv
    │ 02. Global Memory.wmv
    │ 03. Constant & Texture Memory.wmv
    │ 04. Shared Memory.wmv
    │ 05. Register & Local Memory.wmv
    │ 06. Summary.wmv

    ├───06. Thread Cooperation and Synchrnization
    │ 01. Overview.wmv
    │ 02. Barrier Synchronization.wmv
    │ 03. Thread Synchronization Demo.wmv
    │ 04. Warp Divergence.wmv
    │ 05. Summary.wmv

    ├───07. Atomic Operations
    │ 01. Overview.wmv
    │ 02. Why Atomics .wmv
    │ 03. Atomic Functions.wmv
    │ 04. Atomic Sum.wmv
    │ 05. Monte Carlo Pi.wmv
    │ 06. Summary.wmv

    ├───08. Events and Streams
    │ 01. Overview.wmv
    │ 02. Events.wmv
    │ 03. Event API.wmv
    │ 04. Event example.wmv
    │ 05. Pinned memory.wmv
    │ 06. Streams.wmv
    │ 07. Stream API.wmv
    │ 08. Example (single stream).wmv
    │ 09. Example (multiple streams).wmv
    │ 10. Summary.wmv

    └───09. CUDA in Advanced Scenarios
    01. Overview.wmv
    02. Inline PTX.wmv
    03. Device API.wmv
    04. Pinned Memory.wmv
    05. Multi-GPU Programming.wmv
    06. Thrust.wmv
    07. Summary.wmv
    Файлы примеров: присутствуют
    Формат видео: WMV

    audio\video

    General
    Complete name : D:\01. Tools Overview.wmv
    Format : Windows Media
    File size : 8.22 MiB
    Duration : 5mn 4s
    Overall bit rate mode : Variable
    Overall bit rate : 226 Kbps
    Maximum Overall bit rate : 2 336 Kbps
    Encoded date : UTC 2013-06-17 14:32:59.835
    Video
    ID : 2
    Format : VC-1
    Format profile : MP@HL
    Codec ID : WMV3
    Codec ID/Info : Windows Media Video 9
    Codec ID/Hint : WMV3
    Description of the codec : Windows Media Video 9
    Duration : 5mn 4s
    Bit rate mode : Variable
    Bit rate : 46.0 Kbps
    Width : 1 024 pixels
    Height : 768 pixels
    Display aspect ratio : 4:3
    Frame rate : 15.000 fps
    Bit depth : 8 bits
    Compression mode : Lossy
    Bits/(Pixel*Frame) : 0.004
    Stream size : 1.67 MiB (20%)
    Language : English (US)
    Audio
    ID : 1
    Format : WMA
    Format version : Version 2
    Codec ID : 161
    Codec ID/Info : Windows Media Audio
    Description of the codec : Windows Media Audio 9.2 - 128 kbps, 44 kHz, stereo 1-pass CBR
    Duration : 5mn 4s
    Bit rate mode : Constant
    Bit rate : 128 Kbps
    Channel(s) : 2 channels
    Sampling rate : 44.1 KHz
    Bit depth : 16 bits
    Stream size : 4.65 MiB (57%)
    Language : English (US)

    Скриншоты

    Скачать .torrent

    Скачать торрент-файл бесплатно и на максимальной скорости!

    Как скачивать? · Что такое торрент? · Рейтинг и ограничения

    !ВНИМАНИЕ!
    Сайт не распространяет и не хранит электронные версии произведений, а занимается лишь лишь предоставлением доступа к создаваемому пользователями каталогу ссылок на торрент-файлы, которые содержат только списки хеш-сумм, убедительная просьба с жалобами обращаться напрямую к пользователю. Файлы для обмена на трекере предоставлены пользователями сайта, и администрация не несёт ответственности за их содержание. Просьба не заливать файлы, защищенные авторскими правами, а также файлы нелегального содержания!

    [Профиль] [ЛС]
    Показать сообщения:    
    Ответить на тему

    Текущее время: Сегодня, в 07:57

    Часовой пояс: GMT + 2



    Вы не можете начинать темы
    Вы не можете отвечать на сообщения
    Вы не можете редактировать свои сообщения
    Вы не можете удалять свои сообщения
    Вы не можете голосовать в опросах
    Вы не можете прикреплять файлы к сообщениям
    Вы не можете скачивать файлы