BitTorrentTracker PerecTracker.org
BitTorrentTracker PerecTracker.org
    
Регистрация  ·  Вход
 
 · 
Забыли пароль?

  • Lady Antebellum - Hello World [2010, Country, Master 1080p]

    Ответить на тему
     
    Автор Сообщение

    Columb

    Создавать темы 04-Окт-2013 16:33

           

    [Цитировать]

    Lady Antebellum - Hello WorldЖанр: Country
    Продолжительность: 00:05:32
    Год выпуска: 2010
    Качество: Master 1080p
    Контейнер: MOV
    Видео кодек: H.264
    Аудио кодек: PCM
    Видео: MPEG4 Video (H264) 1920x1080p 29.97fps 56.1Mbps
    Аудио: QT PCM 44100Hz stereo 1411.2Kbps

    MediaInfo

    Общее
    Полное имя : Lady Antebellum - Hello World [1080p.Master.PCM.H264.Kenny].mov
    Формат : QuickTime
    Формат/Информация : Original Apple specifications
    Размер файла : 2,19 Гбайт
    Продолжительность : 5 м. 32 с.
    Общий поток : 56,6 Мбит/сек
    Дата кодирования : UTC 2010-10-27 19:53:11
    Дата пометки : UTC 2010-10-27 20:09:28
    Библиотека кодирования : Apple QuickTime
    Видео
    Идентификатор : 2
    Формат : AVC
    Формат/Информация : Advanced Video Codec
    Профиль формата : Main@L5.1
    Параметр CABAC формата : Нет
    Параметр ReFrames формата : 2 кадра
    Параметр GOP формата : M=1, N=60
    Идентификатор кодека : avc1
    Идентификатор кодека/Информация : Advanced Video Coding
    Продолжительность : 5 м. 32 с.
    Битрейт : 56,1 Мбит/сек
    Ширина : 1920 пикселей
    Высота : 1080 пикселей
    Соотношение сторон : 16:9
    Режим частоты кадров : Постоянный
    Частота кадров : 29,970 кадров/сек
    Цветовое пространство : YUV
    Субдискретизация насыщенности : 4:2:0
    Битовая глубина : 8 бит
    Тип развёртки : Прогрессивная
    Бит/(Пиксели*Кадры) : 0.902
    Размер потока : 2,14 Гбайт (97%)
    Язык : English
    Дата кодирования : UTC 2010-10-27 19:53:11
    Дата пометки : UTC 2010-10-27 20:09:28
    Основные цвета : BT.709
    Характеристики трансфера : BT.709
    Коэффициенты матрицы : BT.709
    Аудио
    Идентификатор : 1
    Формат : PCM
    Параметр Endianness формата : Big
    Параметр Sign формата : Signed
    Идентификатор кодека : twos
    Продолжительность : 5 м. 32 с.
    Вид битрейта : Постоянный
    Битрейт : 1411,2 Кбит/сек
    Каналы : 2 канала
    Частота : 44,1 КГц
    Битовая глубина : 16 бит
    Размер потока : 55,9 Мбайт (2%)
    Язык : English
    Дата кодирования : UTC 2010-10-27 19:53:11
    Дата пометки : UTC 2010-10-27 20:09:28
    Меню
    Идентификатор : 3
    Продолжительность : 5 м. 32 с.
    Язык : English
    Дата кодирования : UTC 2010-10-27 20:09:28
    Дата пометки : UTC 2010-10-27 20:09:28

    Скриншоты

    Скачать .torrent

    Скачать торрент-файл бесплатно и на максимальной скорости!

    Как скачивать? · Что такое торрент? · Рейтинг и ограничения

    !ВНИМАНИЕ!
    Сайт не распространяет и не хранит электронные версии произведений, а занимается лишь лишь предоставлением доступа к создаваемому пользователями каталогу ссылок на торрент-файлы, которые содержат только списки хеш-сумм, убедительная просьба с жалобами обращаться напрямую к пользователю. Файлы для обмена на трекере предоставлены пользователями сайта, и администрация не несёт ответственности за их содержание. Просьба не заливать файлы, защищенные авторскими правами, а также файлы нелегального содержания!

    [Профиль] [ЛС]
    Показать сообщения:    
    Ответить на тему

    Текущее время: Сегодня, в 04:33

    Часовой пояс: GMT + 2



    Вы не можете начинать темы
    Вы не можете отвечать на сообщения
    Вы не можете редактировать свои сообщения
    Вы не можете удалять свои сообщения
    Вы не можете голосовать в опросах
    Вы не можете прикреплять файлы к сообщениям
    Вы не можете скачивать файлы