Register  ·  Log in
Forgot password?

  • (Melodic Doom/Death Metal) Nethermost - Alpha (EP) - 2012, FLAC (image+.cue), lossless

    Reply to topic
    Author Message


    Post 04-Oct-2013 16:49



    Nethermost - Alpha (EP)Жанр: Melodic Doom/Death Metal
    Страна-производитель диска: Canada
    Год издания: 2012
    Издатель (лейбл): Hypnotic Dirge Records
    Номер по каталогу: HDR - 030
    Страна: United States
    Аудиокодек: FLAC (*.flac)
    Тип рипа: image+.cue
    Битрейт аудио: lossless
    Продолжительность: 00:18:21
    Источник (релизер): Troll-Santa (MMT)
    Наличие сканов в содержимом раздачи: да
    01. Phasing Currents (05:14)
    02. The Untroubled Kingdom Of Reason (04:07)
    03. Tower Of The Winds (04:32)
    04. Dance Of Burning Beasts (04:28)

    Лог создания рипа

    Exact Audio Copy V1.0 beta 3 from 29. August 2011
    EAC extraction logfile from 2. October 2013, 18:24
    Nethermost / Alpha
    Used drive : ASUS DRW-24B3LT Adapter: 3 ID: 1
    Read mode : Secure
    Utilize accurate stream : Yes
    Defeat audio cache : Yes
    Make use of C2 pointers : No
    Read offset correction : 6
    Overread into Lead-In and Lead-Out : No
    Fill up missing offset samples with silence : Yes
    Delete leading and trailing silent blocks : No
    Null samples used in CRC calculations : Yes
    Used interface : Native Win32 interface for Win NT & 2000
    Used output format : User Defined Encoder
    Selected bitrate : 1024 kBit/s
    Quality : High
    Add ID3 tag : No
    Command line compressor : C:\Program Files (x86)\Exact Audio Copy\FLAC\FLAC.EXE
    Additional command line options : -6 -V -T "ARTIST=%artist%" -T "TITLE=%title%" -T "ALBUM=%albumtitle%" -T "DATE=%year%" -T "TRACKNUMBER=%tracknr%" -T "GENRE=%genre%" -T "COMMENT=%comment%" -T "BAND=%albuminterpret%" -T "ALBUMARTIST=%albuminterpret%" -T "COMPOSER=%composer%" %haslyrics%--tag-from-file=LYRICS="%lyricsfile%"%haslyrics% -T "DISCNUMBER=%cdnumber%" -T "TOTALDISCS=%totalcds%" -T "TOTALTRACKS=%numtracks%" %hascover%--picture="%coverfile%"%hascover% %source% -o %dest%
    TOC of the extracted CD
    Track | Start | Length | Start sector | End sector
    1 | 0:00.00 | 5:14.00 | 0 | 23549
    2 | 5:14.00 | 4:07.01 | 23550 | 42075
    3 | 9:21.01 | 4:32.38 | 42076 | 62513
    4 | 13:53.39 | 4:28.01 | 62514 | 82614
    Range status and errors
    Selected range
    Filename E:\eMule\MyRips\NEW\Nethermost 2012 Alpha.wav
    Peak level 65.1 %
    Extraction speed 6.5 X
    Range quality 100.0 %
    Test CRC 703624DE
    Copy CRC 703624DE
    Copy OK
    No errors occurred
    AccurateRip summary
    Track 1 not present in database
    Track 2 not present in database
    Track 3 not present in database
    Track 4 not present in database
    None of the tracks are present in the AccurateRip database
    End of status report
    ==== Log checksum FB4BE4B065CF722D6F35BABD26193AC9EE2F2C5E443238835AA63FC8C9F8E7EA ====

    Содержание индексной карты (.CUE)

    REM GENRE "Melodic Doom/Death Metal"
    REM DATE 2012
    REM DISCID 2A044D04
    REM COMMENT "ExactAudioCopy v1.0b3"
    PERFORMER "Nethermost"
    TITLE "Alpha"
    FILE "Nethermost 2012 Alpha.flac" WAVE
    TITLE "Phasing Currents"
    PERFORMER "Nethermost"
    INDEX 01 00:00:00
    TITLE "The Untroubled Kingdom Of Reason"
    PERFORMER "Nethermost"
    INDEX 01 05:14:00
    TITLE "Tower Of The Winds"
    PERFORMER "Nethermost"
    INDEX 01 09:21:01
    TITLE "Dance Of Burning Beasts"
    PERFORMER "Nethermost"
    INDEX 01 13:53:39


    PERFORMER: auCDtect Task Manager, ver. 1.5.1RC6 build
    Copyright (c) 2008-2010 y-soft. All rights reserved
    ANALYZER: auCDtect: CD records authenticity detector, version 0.8.2
    Copyright (c) 2004 Oleg Berngardt. All rights reserved.
    Copyright (c) 2004 Alexander Djourik. All rights reserved.
    FILE: Nethermost 2012 Alpha.flac
    Size: 137476831 Hash: 90DF3BB8EF8E692F5F74C0BB82C19254 Accuracy: -m0
    Conclusion: CDDA 100%
    Signature: 23EDD962696C7B2ACD95B3CA163874C717F9E606

    TT Dynamic Range Meter

    foobar2000 1.1.10 / Dynamic Range Meter 1.1.1
    log date: 2013-10-03 16:03:07
    Analyzed: Nethermost / Alpha
    DR Peak RMS Duration Track
    DR6 -3.72 dB -10.94 dB 5:14 01-Phasing Currents
    DR5 -3.88 dB -9.93 dB 4:07 02-The Untroubled Kingdom Of Reason
    DR5 -4.16 dB -9.90 dB 4:33 03-Tower Of The Winds
    DR5 -3.86 dB -10.20 dB 4:28 04-Dance Of Burning Beasts
    Number of tracks: 4
    Official DR value: DR5
    Samplerate: 44100 Hz
    Channels: 2
    Bits per sample: 16
    Bitrate: 998 kbps
    Codec: FLAC
    Download .torrent

    Download free and at maximum speed!

    How to Download? · What is a torrent? · Ratings and Limitations

    The site does not extend and does not store electronic(digital) versions of products, and only gives access to a reference catalogue created by users on torrent-files which contain only lists of the hash-sums, the earnest entreaty, with complaints(abuse) to access directly to the user. Files for an exchange on tracker are given by users of a site, and the administration does not bear the responsibility for their maintenance. The request to not fill in the files protected by copyrights, and also files of the illegal maintenance!

    [Profile] [PM]
    Display posts from previous:    
    Reply to topic

    The time now is: Today 06:15

    All times are GMT + 3 Hours

    You cannot post new topics in this forum
    You cannot reply to topics in this forum
    You cannot edit your posts in this forum
    You cannot delete your posts in this forum
    You cannot vote in polls in this forum
    You cannot attach files in this forum
    You cannot download files in this forum