BitTorrentTracker PerecTracker.org
BitTorrentTracker PerecTracker.org
    
Регистрация  ·  Вход
 
 · 
Забыли пароль?

  • (Avant-prog) Fukkeduk - Ornithozozy - 1994, FLAC (image+.cue), lossless

    Ответить на тему
     
    Автор Сообщение

    Columb

    Создавать темы 04-Окт-2013 15:42

           

    [Цитировать]

    Fukkeduk / Ornithozozy
    Жанр: Avant-prog
    Год издания: 1994
    Страна: Бельгия
    Аудиокодек: FLAC (*.flac)
    Тип рипа: image+.cue
    Битрейт аудио: lossless
    Продолжительность: 00:54:20
    Источник: CD-R
    Наличие сканов в содержимом раздачи: нет
    Треклист:
    1. Louis CXIV (4:37)
    2. Wrong Country (3:19)
    3. Cochonet (1:47)
    4. Ortekè! (5:58)
    5. Lulu de l'Odeur de Bibi (5:42)
    6. L'homme qui rêvait de mettre la Lune dans sa Poche (4:29)
    7. Si vous êtes Alfred Schlicks, then I have to be Julius Meinl (2:54)
    8. Brauchen Sie noch ein bisschen Sand? (5:26)
    9. Chico (5:03)
    10. Fnuk (5:25)
    11. Suck (6:10)
    12. Treponema (3:30)

    Лог создания рипа

    Exact Audio Copy V1.0 beta 3 from 29. August 2011
    Отчёт EAC об извлечении, выполненном 3. октября 2013, 16:20
    Fukkeduk / Ornithozozy
    Дисковод: Optiarc DVD RW AD-7203A Adapter: 1 ID: 0
    Режим чтения : Достоверность
    Использование точного потока : Да
    Отключение кэша аудио : Да
    Использование указателей C2 : Нет
    Коррекция смещения при чтении : 48
    Способность читать области Lead-in и Lead-out : Нет
    Заполнение пропущенных сэмплов тишиной : Да
    Удаление блоков с тишиной в начале и конце : Нет
    При вычислениях CRC использовались нулевые сэмплы : Да
    Интерфейс : Встроенный Win32-интерфейс для Win NT/2000
    Выходной формат : Пользовательский кодировщик
    Выбранный битрейт : 128 kBit/s
    Качество : Высокий
    Добавление ID3-тега : Нет
    Утилита сжатия : C:\Program Files\Exact Audio Copy\Flac\flac.exe
    Дополнительные параметры : -V -8 -T "Date=%year%" -T "Genre=%genre%" %source%
    TOC извлечённого CD
    Трек | Старт | Длительность | Начальный сектор | Конечный сектор
    ---------------------------------------------------------------------
    1 | 0:00.00 | 4:36.55 | 0 | 20754
    2 | 4:36.55 | 3:18.73 | 20755 | 35677
    3 | 7:55.53 | 1:47.07 | 35678 | 43709
    4 | 9:42.60 | 5:58.31 | 43710 | 70590
    5 | 15:41.16 | 5:41.73 | 70591 | 96238
    6 | 21:23.14 | 4:29.24 | 96239 | 116437
    7 | 25:52.38 | 2:53.39 | 116438 | 129451
    8 | 28:46.02 | 5:26.14 | 129452 | 153915
    9 | 34:12.16 | 5:02.68 | 153916 | 176633
    10 | 39:15.09 | 5:24.50 | 176634 | 200983
    11 | 44:39.59 | 6:09.70 | 200984 | 228728
    12 | 50:49.54 | 3:30.11 | 228729 | 244489
    Характеристики диапазона извлечения и сообщения об ошибках
    Выбранный диапазон
    Имя файла C:\Documents and Settings\Admin\Мои документы\Fukkeduk - Ornithozozy.wav
    Пиковый уровень 99.2 %
    Скорость извлечения 4.0 X
    Качество диапазона 100.0 %
    CRC копии 207CEC06
    Копирование... OK
    Ошибок не произошло
    Конец отчёта
    ==== Контрольная сумма отчёта B6F58CEC4DB649B8E1EA501188F79E5F517B50C286CFCEF2DCEF94A0F4707A4A ====

    Об исполнителе (группе)

    http://www.progarchives.com/artist.asp?id=2623

    Состав

    Jan Kuijken / Cello, Electric Cello
    Rik Verstrepen / Violin, Whistle (Human), Whistle (Instrument)
    Kristof Roseeuw / Bass (Electric), Saw, Singing Saw, Double Bass, Bass (Upright), Block Flute
    Paul Klinck / Violin
    Bart Maris / Flugelhorn Trumpet
    Tone De Wulf / Drums, Percussion
    Fukkeduk / Applause, Handclapping, Main Performer, Vocals
    Nick Didkovsky / Guitar, Producer
    Nicolas Roseeuw / Block Flute, Saxophone, Voices
    Frank Ghysels / Amplifiers, Guitar
    Скачать .torrent

    Скачать торрент-файл бесплатно и на максимальной скорости!

    Как скачивать? · Что такое торрент? · Рейтинг и ограничения

    !ВНИМАНИЕ!
    Сайт не распространяет и не хранит электронные версии произведений, а занимается лишь лишь предоставлением доступа к создаваемому пользователями каталогу ссылок на торрент-файлы, которые содержат только списки хеш-сумм, убедительная просьба с жалобами обращаться напрямую к пользователю. Файлы для обмена на трекере предоставлены пользователями сайта, и администрация не несёт ответственности за их содержание. Просьба не заливать файлы, защищенные авторскими правами, а также файлы нелегального содержания!

    [Профиль] [ЛС]
    Показать сообщения:    
    Ответить на тему

    Текущее время: Сегодня, в 03:21

    Часовой пояс: GMT + 2



    Вы не можете начинать темы
    Вы не можете отвечать на сообщения
    Вы не можете редактировать свои сообщения
    Вы не можете удалять свои сообщения
    Вы не можете голосовать в опросах
    Вы не можете прикреплять файлы к сообщениям
    Вы не можете скачивать файлы