BitTorrentTracker PerecTracker.org
BitTorrentTracker PerecTracker.org
    
Регистрация  ·  Вход
 
 · 
Забыли пароль?

  • Хоффа / Hoffa (Дэнни ДеВито / Danny DeVito) [1992, США, Франция, Драма, криминал, биография, HDTVRip] MVO (1 канал)

    Ответить на тему
     
    Автор Сообщение

    Columb

    Создавать темы 03-Окт-2013 13:25

           

    [Цитировать]

    Хоффа / Hoffa
    Страна: США, Франция
    Студия: 20th Century Fox Film Corporation, Canal+ [fr], Jersey Films
    Жанр: Драма, криминал, биография
    Год выпуска: 1992
    Продолжительность: 02:07:32
    Перевод: Профессиональный (многоголосый закадровый) 1 канал
    Cубтитры: нет
    Оригинальная аудиодорожка: нет
    Режиссер: Дэнни ДеВито/ Danny DeVito
    В ролях: Джек Николсон, Дэнни ДеВито, Арманд Ассанте, Дж.Т. Уолш, Джон С. Райлли, Фрэнк Уэйли, Кевин Андерсон, Джон П. Райан, Роберт Проски, Наталия Ногулич, Николас Прайор, Пол Гилфойл, Карен Янг, Клифф Гормен, Джо Греко, Энтони Канната, Том Финнеган, Джерри Бекер, Ширли Престиа, Кевин Краули
    Описание: Взлет и падение самого знаменитого авантюриста и политика от американских профсоюзов Джимми Хоффы. Во времена президента Эйзенхауэра он уговаривал водителей грузовиков вступить в его профсоюз. А во времена Никсона он погибает от рук наемных убийц. Между тридцатыми и семидесятыми — годы борьбы за права, головокружительная карьера, сговор с мафией, тюрьма и снова свобода. Хоффа — «Крестный отец» наоборот. Корлеоне стремились получить власть, чтобы смыть кровь со своих рук. Хоффа, начав свой путь безупречно чистым, познал уродства большой власти.

    Качество видео: HDTVRip
    Формат видео: AVI
    Видео: XviD 720x400 (16:9)) 25.0fps Bit rate 2095Kbps b/p 0.291
    Аудио: AC3 48.0 KHz 2ch. 224kbps

    MediaInfo

    General
    Complete name : E:\torrent\Hoffa_HDTVRip.avi
    Format : AVI
    Format/Info : Audio Video Interleave
    Format profile : OpenDML
    File size : 2.08 GiB
    Duration : 2h 7mn
    Overall bit rate : 2 332 Kbps
    Writing library : VirtualDub build 32842/release
    Video
    ID : 0
    Format : MPEG-4 Visual
    Format profile : Advanced Simple@L5
    Format settings, BVOP : Yes
    Format settings, QPel : No
    Format settings, GMC : No warppoints
    Format settings, Matrix : Default (H.263)
    Codec ID : XVID
    Codec ID/Hint : XviD
    Duration : 2h 7mn
    Bit rate : 2 095 Kbps
    Width : 720 pixels
    Height : 400 pixels
    Display aspect ratio : 16:9
    Frame rate : 25.000 fps
    Color space : YUV
    Chroma subsampling : 4:2:0
    Bit depth : 8 bits
    Scan type : Progressive
    Bits/(Pixel*Frame) : 0.291
    Stream size : 1.87 GiB (90%)
    Writing library : XviD 1.2.1 (UTC 2008-12-04)
    Audio
    ID : 1
    Format : AC-3
    Format/Info : Audio Coding 3
    Mode extension : CM (complete main)
    Codec ID : 2000
    Duration : 2h 7mn
    Bit rate mode : Constant
    Bit rate : 224 Kbps
    Channel(s) : 2 channels
    Channel positions : Front: L R
    Sampling rate : 48.0 KHz
    Bit depth : 16 bits
    Stream size : 204 MiB (10%)
    Alignment : Aligned on interleaves
    Interleave, duration : 40 ms (1.00 video frame)
    Interleave, preload duration : 512 ms

    Скриншот c названием фильма

    Скриншоты

    Скачать .torrent

    Скачать торрент-файл бесплатно и на максимальной скорости!

    Как скачивать? · Что такое торрент? · Рейтинг и ограничения

    !ВНИМАНИЕ!
    Сайт не распространяет и не хранит электронные версии произведений, а занимается лишь лишь предоставлением доступа к создаваемому пользователями каталогу ссылок на торрент-файлы, которые содержат только списки хеш-сумм, убедительная просьба с жалобами обращаться напрямую к пользователю. Файлы для обмена на трекере предоставлены пользователями сайта, и администрация не несёт ответственности за их содержание. Просьба не заливать файлы, защищенные авторскими правами, а также файлы нелегального содержания!

    [Профиль] [ЛС]
    Показать сообщения:    
    Ответить на тему

    Текущее время: Сегодня, в 10:02

    Часовой пояс: GMT + 2



    Вы не можете начинать темы
    Вы не можете отвечать на сообщения
    Вы не можете редактировать свои сообщения
    Вы не можете удалять свои сообщения
    Вы не можете голосовать в опросах
    Вы не можете прикреплять файлы к сообщениям
    Вы не можете скачивать файлы