Register  ·  Log in
Forgot password?

  • Они сохранили мозг Гитлера / They saved Hitler's brain (Дэвид Брэдли / David Bradley) [1968, США, фантастика, триллер, шпионский фильм, DVDRip] VO

    Reply to topic
    Author Message


    Post 29-Sep-2013 11:52



    Они сохранили мозг Гитлера / They saved Hitler's brain
    Страна: США
    Жанр: фантастика, триллер, шпионский фильм
    Год выпуска: 1968
    Продолжительность: 01:32:58
    Перевод: Одноголосый закадровый Трамвай-фильм
    Режиссер: Дэвид Брэдли / David Bradley
    В ролях:
    Уолтер Стокер
    Одри Кейр
    Карлос Ривас
    Джон Холлэнд
    Маршалл Рид
    Скотт Питерс
    Кит Дахле
    Дэни Линн
    Нестор Пайва
    Педро Регас
    Описание: В конце Второй мировой войны нацисты отделили голову покончившего жизнь самоубийство Гитлера от мёртвого тела
    и спрятали в одной из стран Южной Америки с целью впоследствии восстановить Третий рейх.
    В шестидесятых годах фашисты решают, что их время пришло. Они похищают знаменитого ученого, профессора Джона Колемана,
    чтобы тот оживил голову Гитлера. За расследование похищения берется правительственный агент Фил Дей.
    Ему помогает дочь профессора Кэти. Вскоре расследование приводит агентов на один из островов в Карибском море…
    Качество видео: DVDRip
    Формат видео: AVI
    Видео: mp43, 899 Kbps, 640x480, 29.970 fps
    Аудио: MPEG Audio, Layer 3, MS Stereo, MP3, 2 channels, 44.1 KHz


    Complete name : D:\torrent\1 раздачи\Они сохранили мозг Гитлера\Они сохранили мозг Гитлера (1968).avi
    Format : AVI
    Format/Info : Audio Video Interleave
    File size : 694 MiB
    Duration : 1h 32mn
    Overall bit rate : 1 044 Kbps
    ID : 0
    Format : mp43
    Codec ID : mp43
    Duration : 1h 32mn
    Bit rate : 899 Kbps
    Width : 640 pixels
    Height : 480 pixels
    Display aspect ratio : 4:3
    Frame rate : 29.970 fps
    Bits/(Pixel*Frame) : 0.098
    Stream size : 598 MiB (86%)
    ID : 1
    Format : MPEG Audio
    Format version : Version 1
    Format profile : Layer 3
    Mode : Joint stereo
    Mode extension : MS Stereo
    Codec ID : 55
    Codec ID/Hint : MP3
    Duration : 1h 32mn
    Bit rate mode : Constant
    Bit rate : 128 Kbps
    Channel count : 2 channels
    Sampling rate : 44.1 KHz
    Compression mode : Lossy
    Stream size : 85.1 MiB (12%)
    Alignment : Aligned on interleaves
    Interleave, duration : 26 ms (0.78 video frame)
    Writing library : LAME3.98
    Download .torrent

    Download free and at maximum speed!

    How to Download? · What is a torrent? · Ratings and Limitations

    The site does not extend and does not store electronic(digital) versions of products, and only gives access to a reference catalogue created by users on torrent-files which contain only lists of the hash-sums, the earnest entreaty, with complaints(abuse) to access directly to the user. Files for an exchange on tracker are given by users of a site, and the administration does not bear the responsibility for their maintenance. The request to not fill in the files protected by copyrights, and also files of the illegal maintenance!

    [Profile] [PM]
    Display posts from previous:    
    Reply to topic

    The time now is: Today 23:51

    All times are GMT + 3 Hours

    You cannot post new topics in this forum
    You cannot reply to topics in this forum
    You cannot edit your posts in this forum
    You cannot delete your posts in this forum
    You cannot vote in polls in this forum
    You cannot attach files in this forum
    You cannot download files in this forum