BitTorrentTracker PerecTracker.org
BitTorrentTracker PerecTracker.org
    
Регистрация  ·  Вход
 
 · 
Забыли пароль?

  • Они сохранили мозг Гитлера / They saved Hitler's brain (Дэвид Брэдли / David Bradley) [1968, США, фантастика, триллер, шпионский фильм, DVDRip] VO

    Ответить на тему
     
    Автор Сообщение

    Columb

    Создавать темы 29-Сен-2013 10:52

           

    [Цитировать]

    Они сохранили мозг Гитлера / They saved Hitler's brain
    Страна: США
    Жанр: фантастика, триллер, шпионский фильм
    Год выпуска: 1968
    Продолжительность: 01:32:58
    Перевод: Одноголосый закадровый Трамвай-фильм
    Режиссер: Дэвид Брэдли / David Bradley
    В ролях:
    Уолтер Стокер
    Одри Кейр
    Карлос Ривас
    Джон Холлэнд
    Маршалл Рид
    Скотт Питерс
    Кит Дахле
    Дэни Линн
    Нестор Пайва
    Педро Регас
    Описание: В конце Второй мировой войны нацисты отделили голову покончившего жизнь самоубийство Гитлера от мёртвого тела
    и спрятали в одной из стран Южной Америки с целью впоследствии восстановить Третий рейх.
    В шестидесятых годах фашисты решают, что их время пришло. Они похищают знаменитого ученого, профессора Джона Колемана,
    чтобы тот оживил голову Гитлера. За расследование похищения берется правительственный агент Фил Дей.
    Ему помогает дочь профессора Кэти. Вскоре расследование приводит агентов на один из островов в Карибском море…
    Качество видео: DVDRip
    Формат видео: AVI
    Видео: mp43, 899 Kbps, 640x480, 29.970 fps
    Аудио: MPEG Audio, Layer 3, MS Stereo, MP3, 2 channels, 44.1 KHz

    инфо

    General
    Complete name : D:\torrent\1 раздачи\Они сохранили мозг Гитлера\Они сохранили мозг Гитлера (1968).avi
    Format : AVI
    Format/Info : Audio Video Interleave
    File size : 694 MiB
    Duration : 1h 32mn
    Overall bit rate : 1 044 Kbps
    Video
    ID : 0
    Format : mp43
    Codec ID : mp43
    Duration : 1h 32mn
    Bit rate : 899 Kbps
    Width : 640 pixels
    Height : 480 pixels
    Display aspect ratio : 4:3
    Frame rate : 29.970 fps
    Bits/(Pixel*Frame) : 0.098
    Stream size : 598 MiB (86%)
    Audio
    ID : 1
    Format : MPEG Audio
    Format version : Version 1
    Format profile : Layer 3
    Mode : Joint stereo
    Mode extension : MS Stereo
    Codec ID : 55
    Codec ID/Hint : MP3
    Duration : 1h 32mn
    Bit rate mode : Constant
    Bit rate : 128 Kbps
    Channel count : 2 channels
    Sampling rate : 44.1 KHz
    Compression mode : Lossy
    Stream size : 85.1 MiB (12%)
    Alignment : Aligned on interleaves
    Interleave, duration : 26 ms (0.78 video frame)
    Writing library : LAME3.98
    Скачать .torrent

    Скачать торрент-файл бесплатно и на максимальной скорости!

    Как скачивать? · Что такое торрент? · Рейтинг и ограничения

    !ВНИМАНИЕ!
    Сайт не распространяет и не хранит электронные версии произведений, а занимается лишь лишь предоставлением доступа к создаваемому пользователями каталогу ссылок на торрент-файлы, которые содержат только списки хеш-сумм, убедительная просьба с жалобами обращаться напрямую к пользователю. Файлы для обмена на трекере предоставлены пользователями сайта, и администрация не несёт ответственности за их содержание. Просьба не заливать файлы, защищенные авторскими правами, а также файлы нелегального содержания!

    [Профиль] [ЛС]
    Показать сообщения:    
    Ответить на тему

    Текущее время: Сегодня, в 08:06

    Часовой пояс: GMT + 2



    Вы не можете начинать темы
    Вы не можете отвечать на сообщения
    Вы не можете редактировать свои сообщения
    Вы не можете удалять свои сообщения
    Вы не можете голосовать в опросах
    Вы не можете прикреплять файлы к сообщениям
    Вы не можете скачивать файлы