BitTorrentTracker PerecTracker.org
BitTorrentTracker PerecTracker.org
    
Регистрация  ·  Вход
 
 · 
Забыли пароль?

  • В гнезде грабителей / Бандитский насест / Robber’s Roost (Сидней Сэлкоу / Sidney Salkow) [1955, CША, вестерн, HDTVRip] DVO

    Ответить на тему
     
    Автор Сообщение

    Columb

    Создавать темы 29-Сен-2013 10:43

           

    [Цитировать]

    В гнезде грабителей / Бандитский насест / Robber’s Roost
    Страна: CША
    Жанр: вестерн
    Год выпуска: 1955
    Продолжительность: 01:19:49
    Перевод: Профессиональный (двухголосый закадровый)
    Cубтитры: нет
    Режиссер: Сидней Сэлкоу / Sidney Salkow
    Вролях: Джордж Монтгомери, Ричард Бун, Сильвия Финдли, Брюс Беннетт, Питер Грэйвс и др.
    Описание: Джим «Tex» Уолл (Джордж Монтгомери), в поисках последнего из трех мужчин, которые изнасиловали и убили его жену, присоединяется к банде скотокрадов во главе с Хенком Хейсом (Ричард Бун). Банда Хейса и конкурирующая банда, возглавляемая Хисманом (Питер Грэйвс), были наняты «Быком» Херриком (Брюс Беннетт), калекой, который владеет большим ранчо и огромным стадом скота. Он рассчитывает, что эти две банды будут присматривать одна за другой, чтобы никто не позарился на его скот.
    Доп. информация: За предоставленный рип благодарим Ledy_X
    "Спасибы" просьба ПИСАТЬ в теме, тем самым вы продлеваете жизнь раздаче.
    Качество видео: HDTVRip [Исходник 1080i]
    Формат видео: AVI
    Видео: 720x400 (1.80:1), 25 fps, XviD build 50 ~2339 kbps avg, 0.33 bit/pixel
    Аудио: 48 kHz, AC3 Dolby Digital, 2/0 (L,R) ch, ~192 kbps

    MediaInfo

    В гнезде грабителей [Бандитский насест] - Robber’s Roost [Rip by Ledy_X].avi
    Format : AVI
    Format/Info : Audio Video Interleave
    File size : 1.42 GiB
    Duration : 1h 19mn
    Overall bit rate : 2 542 Kbps
    Movie name : В гнезде грабителей [Бандитский насест] - Robber’s Roost [Rip by Ledy_X]
    Director : Rip by Ledy_X
    Writing application : VirtualDubMod 1.5.10.3 | www.virtualdub-fr.org || (build 2550/release)
    Copyright : Edich2
    Comment : RuTracker.org
    Video
    ID : 0
    Format : MPEG-4 Visual
    Format profile : Advanced Simple@L5
    Format settings, BVOP : 2
    Format settings, QPel : No
    Format settings, GMC : No warppoints
    Format settings, Matrix : Custom
    Codec ID : XVID
    Codec ID/Hint : XviD
    Duration : 1h 19mn
    Bit rate : 2 340 Kbps
    Width : 720 pixels
    Height : 400 pixels
    Display aspect ratio : 16:9
    Frame rate : 25.000 fps
    Color space : YUV
    Chroma subsampling : 4:2:0
    Bit depth : 8 bits
    Scan type : Progressive
    Compression mode : Lossy
    Bits/(Pixel*Frame) : 0.325
    Stream size : 1.30 GiB (92%)
    Writing library : XviD 1.2.1 (UTC 2008-12-04)
    Audio
    ID : 1
    Format : AC-3
    Format/Info : Audio Coding 3
    Mode extension : CM (complete main)
    Format settings, Endianness : Big
    Codec ID : 2000
    Duration : 1h 19mn
    Bit rate mode : Constant
    Bit rate : 192 Kbps
    Channel count : 2 channels
    Channel positions : Front: L R
    Sampling rate : 48.0 KHz
    Bit depth : 16 bits
    Compression mode : Lossy
    Stream size : 110 MiB (8%)
    Alignment : Split accross interleaves
    Interleave, duration : 40 ms (1.00 video frame)
    Interleave, preload duration : 500 ms

    Скриншоты

    Скачать .torrent

    Скачать торрент-файл бесплатно и на максимальной скорости!

    Как скачивать? · Что такое торрент? · Рейтинг и ограничения

    !ВНИМАНИЕ!
    Сайт не распространяет и не хранит электронные версии произведений, а занимается лишь лишь предоставлением доступа к создаваемому пользователями каталогу ссылок на торрент-файлы, которые содержат только списки хеш-сумм, убедительная просьба с жалобами обращаться напрямую к пользователю. Файлы для обмена на трекере предоставлены пользователями сайта, и администрация не несёт ответственности за их содержание. Просьба не заливать файлы, защищенные авторскими правами, а также файлы нелегального содержания!

    [Профиль] [ЛС]
    Показать сообщения:    
    Ответить на тему

    Текущее время: Сегодня, в 23:21

    Часовой пояс: GMT + 2



    Вы не можете начинать темы
    Вы не можете отвечать на сообщения
    Вы не можете редактировать свои сообщения
    Вы не можете удалять свои сообщения
    Вы не можете голосовать в опросах
    Вы не можете прикреплять файлы к сообщениям
    Вы не можете скачивать файлы