BitTorrentTracker PerecTracker.org
BitTorrentTracker PerecTracker.org
    
Регистрация  ·  Вход
 
 · 
Забыли пароль?

  • Первый человек в космосе / First Man Into Space / Rakete 510 (Роберт Дэй / Robert Day) [1959, Великобритания, фантастика, триллер, DVDRip-AVC]

    Ответить на тему
     
    Автор Сообщение

    Columb

    Создавать темы 29-Сен-2013 10:37

           

    [Цитировать]

    Первый человек в космосе / First Man Into Space / Rakete 510
    Страна: Великобритания
    Жанр: фантастика, триллер
    Год выпуска: 1959
    Продолжительность: 01:16:48
    Перевод: Одноголосый закадровый den904
    Оригинальная аудиодорожка: английский
    Режиссер: Роберт Дэй / Robert Day
    В ролях:
    Маршалл Томпсон
    Марла Ланди
    Билл Эдвардс
    Роберт Эйрс
    Билл Наги
    Карл Джаффе
    Роджер Делгадо
    Джон МакЛарен
    Спенсер Тикл
    Чак Кейзер
    Описание: Испытательный полёт экспериментального самолёта Y-13 закончился неудачей — поднявшись на высоту в 400 километров,
    лётчик попал в метеоритный поток и был вынужден катапультироваться. Обломки самолёта позднее были обнаружены в штате Нью-Мексико,
    но пилот пропал без вести. Вскоре правда по тому району поползли слухи о появлении монстра, убивающего людей и скот и питающегося кровью своих жертв.
    Релиз:

    Качество видео: DVDRip-AVC
    Формат видео: MKV
    Видео: V_MPEG4/ISO/AVC, 1 259 Kbps, 720x544, 23.976 fps
    Аудио: AC-3, 192 Kbps, 1 channel, 48.0 KHz (русский)
    Аудио 2: AC-3, 192 Kbps, 1 channel, 48.0 KHz (английский)

    инфо

    Unique ID : 209715179331100091589140601060204954459 (0x9DC5ACA34A9F6C22B68EFBF53883435B)
    Complete name : D:\torrent\1 раздачи\Первый человек в космосе\Первый человек в космосе (1959).mkv
    Format : Matroska
    Format version : Version 4 / Version 2
    File size : 1.11 GiB
    Duration : 1h 16mn
    Overall bit rate : 2 068 Kbps
    Movie name : First Man into Space / 1958 / Первый человек в космосе / Rakete 510 / rip by sasha20072007 / Релиз kosmoaelita
    Encoded date : UTC 2013-09-25 23:18:50
    Writing application : mkvmerge v6.4.1 ('Omega Point') built on Sep 16 2013 22:05:10
    Writing library : libebml v1.3.0 + libmatroska v1.4.1
    Attachment : Yes / Yes / Yes
    Video
    ID : 1
    Format : AVC
    Format/Info : Advanced Video Codec
    Format profile : High@L4.1
    Format settings, CABAC : Yes
    Format settings, ReFrames : 10 frames
    Codec ID : V_MPEG4/ISO/AVC
    Duration : 1h 16mn
    Bit rate : 1 259 Kbps
    Width : 720 pixels
    Height : 544 pixels
    Display aspect ratio : 4:3
    Frame rate mode : Constant
    Frame rate : 23.976 fps
    Color space : YUV
    Chroma subsampling : 4:2:0
    Bit depth : 8 bits
    Scan type : Progressive
    Bits/(Pixel*Frame) : 0.134
    Stream size : 691 MiB (61%)
    Writing library : x264 core 120 r2164 da19765
    Encoding settings : cabac=1 / ref=10 / deblock=1:-2:-2 / analyse=0x3:0x133 / me=umh / subme=11 / psy=1 / psy_rd=1.00:0.20 / mixed_ref=1 / me_range=24 / chroma_me=1 / trellis=2 / 8x8dct=1 / cqm=0 / deadzone=21,11 / fast_pskip=1 / chroma_qp_offset=-3 / threads=12 / sliced_threads=0 / nr=0 / decimate=1 / interlaced=0 / bluray_compat=0 / constrained_intra=0 / bframes=10 / b_pyramid=2 / b_adapt=2 / b_bias=0 / direct=3 / weightb=1 / open_gop=0 / weightp=2 / keyint=220 / keyint_min=22 / scenecut=40 / intra_refresh=0 / rc_lookahead=60 / rc=crf / mbtree=1 / crf=20.5 / qcomp=0.60 / qpmin=0 / qpmax=69 / qpstep=4 / vbv_maxrate=17500 / vbv_bufsize=14000 / crf_max=0.0 / nal_hrd=none / ip_ratio=1.27 / aq=1:1.00
    Default : Yes
    Forced : No
    Audio #1
    ID : 2
    Format : AC-3
    Format/Info : Audio Coding 3
    Mode extension : CM (complete main)
    Format settings, Endianness : Big
    Codec ID : A_AC3
    Duration : 1h 16mn
    Bit rate mode : Constant
    Bit rate : 192 Kbps
    Channel count : 1 channel
    Channel positions : Front: C
    Sampling rate : 48.0 KHz
    Bit depth : 16 bits
    Compression mode : Lossy
    Stream size : 105 MiB (9%)
    Title : Русский ЛО (den904 для) АС3 1.0 192
    Language : Russian
    Default : Yes
    Forced : No
    Audio #2
    ID : 3
    Format : AC-3
    Format/Info : Audio Coding 3
    Mode extension : CM (complete main)
    Format settings, Endianness : Big
    Codec ID : A_AC3
    Duration : 1h 16mn
    Bit rate mode : Constant
    Bit rate : 192 Kbps
    Channel count : 1 channel
    Channel positions : Front: C
    Sampling rate : 48.0 KHz
    Bit depth : 16 bits
    Compression mode : Lossy
    Stream size : 105 MiB (9%)
    Title : Eng
    Language : English
    Default : No
    Forced : Yes
    Audio #3
    ID : 4
    Format : AC-3
    Format/Info : Audio Coding 3
    Mode extension : CM (complete main)
    Format settings, Endianness : Big
    Codec ID : A_AC3
    Duration : 1h 16mn
    Bit rate mode : Constant
    Bit rate : 192 Kbps
    Channel count : 2 channels
    Channel positions : Front: L R
    Sampling rate : 48.0 KHz
    Bit depth : 16 bits
    Compression mode : Lossy
    Stream size : 105 MiB (9%)
    Title : Eng (comment)
    Language : English
    Default : No
    Forced : No
    Audio #4
    ID : 5
    Format : AC-3
    Format/Info : Audio Coding 3
    Mode extension : CM (complete main)
    Format settings, Endianness : Big
    Codec ID : A_AC3
    Duration : 1h 16mn
    Bit rate mode : Constant
    Bit rate : 192 Kbps
    Channel count : 2 channels
    Channel positions : Front: L R
    Sampling rate : 48.0 KHz
    Bit depth : 16 bits
    Compression mode : Lossy
    Stream size : 105 MiB (9%)
    Language : German
    Default : No
    Forced : No
    Menu
    00:00:00.000 : en:01
    00:05:00.233 : en:02
    00:10:00.466 : en:03
    00:15:10.933 : en:04
    00:20:00.833 : en:05
    00:25:00.333 : en:06
    00:30:00.599 : en:07
    00:35:00.266 : en:08
    00:40:00.599 : en:09
    00:45:00.000 : en:10
    00:50:00.233 : en:11
    00:55:00.466 : en:12
    01:00:10.933 : en:13
    01:10:00.833 : en:14
    01:15:00.333 : en:15
    01:20:00.599 : en:16
    01:25:00.266 : en:17
    Скачать .torrent

    Скачать торрент-файл бесплатно и на максимальной скорости!

    Как скачивать? · Что такое торрент? · Рейтинг и ограничения

    !ВНИМАНИЕ!
    Сайт не распространяет и не хранит электронные версии произведений, а занимается лишь лишь предоставлением доступа к создаваемому пользователями каталогу ссылок на торрент-файлы, которые содержат только списки хеш-сумм, убедительная просьба с жалобами обращаться напрямую к пользователю. Файлы для обмена на трекере предоставлены пользователями сайта, и администрация не несёт ответственности за их содержание. Просьба не заливать файлы, защищенные авторскими правами, а также файлы нелегального содержания!

    [Профиль] [ЛС]
    Показать сообщения:    
    Ответить на тему

    Текущее время: Сегодня, в 10:19

    Часовой пояс: GMT + 2



    Вы не можете начинать темы
    Вы не можете отвечать на сообщения
    Вы не можете редактировать свои сообщения
    Вы не можете удалять свои сообщения
    Вы не можете голосовать в опросах
    Вы не можете прикреплять файлы к сообщениям
    Вы не можете скачивать файлы