BitTorrentTracker PerecTracker.org
BitTorrentTracker PerecTracker.org
    
Регистрация  ·  Вход
 
 · 
Забыли пароль?

  • Время цветения / Blossom Time (Пол Л. Стейн / Paul L. Stein) [1934, Великобритания, Мелодрама, мюзикл, DVDRip] VO + Sub Rus + Original Eng

    Ответить на тему
     
    Автор Сообщение

    Columb

    Создавать темы 28-Сен-2013 17:13

           

    [Цитировать]

    Время цветения / Blossom Time
    Страна: Великобритания
    Жанр: Мелодрама, мюзикл
    Год выпуска: 1934
    Продолжительность: 01:25:42
    Перевод: Одноголосый закадровый
    Cубтитры: русские (только перевод песен)
    Оригинальная аудиодорожка: английский
    Режиссер: Пол Л. Стейн / Paul L. Stein

    В ролях: Рихард Таубер, Джейн Бакстер, Карл Эсмонд, Эфин Сейлер, Пол Грэц, Чарльз Карсон, Маргарит Аллан, Эдвард Чэпман, Лестер Мэтьюз, Гибб МакЛафлин.
    Описание: Действие происходит в Вене в 1820-х годах. Прежде чем стать известными и великими, многие проходят пору безвестности. Не миновала чаша сия и знаменитого композитора Франца Шуберта (эту роль в фильме сыграл Ричард Таубер). Он был учителем музыки, преподавая в школе и снимая небольшую комнату в мансарде у домовладельца. А еще он был тихо влюблен в дочь хозяина, но так как он был скромен и застенчив, то не мог признаться в своих чувствах, а всю любовь изливал в музыке. Однажды девушка (Джейн Бакстер) познакомилась с молодым графом, лихим офицером, состоящим на службе ее величества, и молодые полюбили друг друга. Шуберт в тихом отчаянии. Но великий в музыке, он был велик и в своих поступках. Он решает сделать женщину своей мечты счастливой, организовав брак своей любимой с человеком, которого любит она. А для этого надо попасть на аудиенцию к самой императрице, которая имеет виды на этого офицера и хочет организовать брак офицера со своей фрейлиной - баронессой. Шуберту помогает нечаянно узнанная им история о том, что когда-то императрица, еще будучи принцессой, сама была влюблена в простого учителя музыки. Но жизнь королевских особ им не принадлежит, и ей пришлось свою любовь положить на алтарь трона. А как она поступит сейчас? И сможет ли Шуберт добиться желаемого от царствующей особы с помощью своей музыки?...

    Доп. информация: Благодарность за предоставленный исходный материал Инжир,
    За релиз: pmv,
    И еще немного информации:
    Фильм поставлен по мюзиклу композитора Зигмунда Ромберга «Время цветения», которая была весьма популярна на театральных подмостках. Единственная официальная версия фильма-мюзикла была снята в Великобритании. Однако, чтобы не платить большого авторского гонорара, большинство сцен Зигмунда Ромберга были заменены подлинными номерами самого Франца Шуберта.
    Фильм порадует любителей классической музыки, особенно поклонников творчества композитора Франца Шуберта. Фильм относится к лучшим кинобиографиям, которые были в моде в 1930 -1950-х годах. Клише и исторические неточности были сведены к минимуму. И просто неподражаем тенор Ричард Таубер, который играет вполне достоверно и как актер. Этот фильм считается лучшим фильмом в кинокарьере Ричарда Таубера, которая состоит из 15 художественных фильмов. К сожалению, видеоряд оставляет желать лучшего, но он до сих пор пока не восстановлен и выпущен в таком виде, а жаль, поскольку сам Ричард Таубер принадлежит к величайшим тенорам мира. Ричард Таубер высоко ценится как один из величайших певцов 20 века.
    Он исполнял партии тенора во многих операх, в том числе «Дон Жуан», «Тоска», «Манон», «Фауст», «Кармен», «Летучая мышь». Именно в этот период он сделал свою первую грамзапись из более 700 осуществленных в дальнейшем, в основном записанных на «Одеон Рекордс». У Таубера был лирический тенор, он обладал гибким голосом и пел теплым элегантным легато. Его хорошо разработанные легкие позволяли ему контролировать свой прекрасный голос с превосходным пианиссимо. Таубера называли австрийским Карузо.
    IMDb= 6,8
    Сэмпл: http://multi-up.com/907564
    Качество видео: DVDRip
    Формат видео: AVI
    Видео: 720x544 (1.32:1), 25 fps, XviD MPEG-4 ~1798 kbps avg, 0.18 bit/pixel
    Аудио: rus: 48 kHz, MPEG Layer 3, 1 ch, ~96.00 kbps avg - Русский одноголосый
    Аудио 2: eng: 48 kHz, MPEG Layer 3, 1 ch, ~96.00 kbps avg
    Формат субтитров: softsub (SRT)

    MediaInfo

    Формат : AVI
    Формат/Информация : Audio Video Interleave
    Размер файла : 1,20 Гбайт
    Продолжительность : 1 ч. 25 м.
    Общий поток : 2006 Кбит/сек
    Программа кодирования : VirtualDubMod 1.5.10.3 | www.virtualdub-fr.org || (build 2550/release)
    Библиотека кодирования : VirtualDubMod build 2550/release
    Видео
    Идентификатор : 0
    Формат : MPEG-4 Visual
    Профиль формата : Advanced Simple@L5
    Параметр BVOP формата : 2
    Параметр QPel формата : Нет
    Параметр GMC формата : Без точки перехода
    Параметр матрицы формата : Default (H.263)
    Режим смешивания : Сжатый битовый поток
    Идентификатор кодека : XVID
    Идентификатор кодека/Подсказка : XviD
    Продолжительность : 1 ч. 25 м.
    Битрейт : 1800 Кбит/сек
    Ширина : 720 пикселей
    Высота : 544 пикселя
    Соотношение сторон : 4:3
    Частота кадров : 25,000 кадров/сек
    Цветовое пространство : YUV
    Субдискретизация насыщенности : 4:2:0
    Битовая глубина : 8 бит
    Тип развёртки : Прогрессивная
    Метод сжатия : С потерями
    Бит/(Пиксели*Кадры) : 0.184
    Размер потока : 1,08 Гбайт (90%)
    Библиотека кодирования : XviD 1.2.1 (UTC 2008-12-04)
    Аудио #1
    Идентификатор : 1
    Формат : MPEG Audio
    Версия формата : Version 1
    Профиль формата : Layer 3
    Идентификатор кодека : 55
    Идентификатор кодека/Подсказка : MP3
    Продолжительность : 1 ч. 25 м.
    Вид битрейта : Постоянный
    Битрейт : 96,0 Кбит/сек
    Каналы : 1 канал
    Частота : 48,0 КГц
    Метод сжатия : С потерями
    Размер потока : 58,8 Мбайт (5%)
    Выравнивание : Соединение по промежуткам
    Продолжительность промежутка : 40 мс. (1,00 видеокадр)
    Время предзагрузки промежутка : 504 мс.
    Аудио #2
    Идентификатор : 2
    Формат : MPEG Audio
    Версия формата : Version 1
    Профиль формата : Layer 3
    Идентификатор кодека : 55
    Идентификатор кодека/Подсказка : MP3
    Продолжительность : 1 ч. 25 м.
    Вид битрейта : Постоянный
    Битрейт : 96,0 Кбит/сек
    Каналы : 1 канал
    Частота : 48,0 КГц
    Метод сжатия : С потерями
    Размер потока : 58,8 Мбайт (5%)
    Выравнивание : Соединение по промежуткам
    Продолжительность промежутка : 40 мс. (1,00 видеокадр)
    Время предзагрузки промежутка : 504 мс.

    Скриншот c названием фильма

    Скриншоты

    Скачать .torrent

    Скачать торрент-файл бесплатно и на максимальной скорости!

    Как скачивать? · Что такое торрент? · Рейтинг и ограничения

    !ВНИМАНИЕ!
    Сайт не распространяет и не хранит электронные версии произведений, а занимается лишь лишь предоставлением доступа к создаваемому пользователями каталогу ссылок на торрент-файлы, которые содержат только списки хеш-сумм, убедительная просьба с жалобами обращаться напрямую к пользователю. Файлы для обмена на трекере предоставлены пользователями сайта, и администрация не несёт ответственности за их содержание. Просьба не заливать файлы, защищенные авторскими правами, а также файлы нелегального содержания!

    [Профиль] [ЛС]
    Показать сообщения:    
    Ответить на тему

    Текущее время: Сегодня, в 12:18

    Часовой пояс: GMT + 2



    Вы не можете начинать темы
    Вы не можете отвечать на сообщения
    Вы не можете редактировать свои сообщения
    Вы не можете удалять свои сообщения
    Вы не можете голосовать в опросах
    Вы не можете прикреплять файлы к сообщениям
    Вы не можете скачивать файлы