BitTorrentTracker PerecTracker.org
BitTorrentTracker PerecTracker.org
    
Регистрация  ·  Вход
 
 · 
Забыли пароль?

  • Замок зла / Башня дьявола / Tower of Evil / Horror on Snape Island (Джим О’Конноли / Jim O'Connolly) [1972, Великобритания, ужасы, BDRip] AVO (Кузнецов)

    Ответить на тему
     
    Автор Сообщение

    Columb

    Создавать темы 28-Сен-2013 15:40

           

    [Цитировать]

    Замок зла / Tower of Evil
    Страна: Великобритания
    Жанр: ужасы
    Год выпуска: 1972
    Продолжительность: 01:30:13
    Перевод: Авторский (одноголосый закадровый) Кузнецов Сергей
    Cубтитры: нет
    Режиссер: Джим О’Конноли / Jim O'Connolly
    В ролях: Брайант Хэлидэй, Джилл Хаворт, Марк Эдвардс, Джек Уотсон, Анна Полк, Дерек Фоулдс, Джордж Кулурис, Уильям Лукас, Джон Хэмилл, Кендес Гленденнинг, Робин Эсквив, Серетта Уилсон, Марианн Стоун, Фредерик Эбботт, Марк МакБрайд, Деннис Прайс, Энтони Валентайн, Гари Хэмилтон
    Описание: Туманной ночью два рыбака, Хэмп Гарни и его отец Джон, приплывают к острову. Обследуя горное побережье, они находят труп молодого человека. На заброшенном маяке острова они обнаруживают обезглавленное тело женщины. Неожиданно на Джона из укрытия нападает обнаженная девушка и убивает.
    После чего бросается на Хэмпа, но тот сбивает ее с ног. Он отвозит девушку, которой оказывается Пенелопа Рид, в госпиталь. Обвиняемая в убийстве своих товарищей, Пенелопа ничего не может вспомнить. Ей прописывают курс терапии, чтобы вывести из транса. Постепенно она начинает вспоминать события, происшедшие на острове…

    Доп. информация:
    Качество видео: BDRip | Diablo/1080p BD-Remux
    Формат видео: AVI
    Видео: 720x384 (1.88:1), 23.976 fps, XviD build 73 ~2106 kbps avg, 0.32 bit/pixel
    Аудио: 48 kHz, AC3 Dolby Digital, 2/0 (L,R) ch, ~192 kbps

    MediaInfo

    Общее
    Полное имя : C:\Documents and Settings\Пользователь\Рабочий стол\Торрентс.ру\Tower.of.Evil.1972.BDRip.AVO_by_LBS.avi
    Формат : AVI
    Формат/Информация : Audio Video Interleave
    Размер файла : 1,45 Гбайт
    Продолжительность : 1 ч. 30 м.
    Общий поток : 2308 Кбит/сек
    Режиссёр : Last Boy Scout
    Программа кодирования : VirtualDubMod 1.5.10.3 | www.virtualdub-fr.org || (build 2550/release)
    Правообладатель : rutracker.org 28.09.2013
    Примечание : BDRip AVO (Кузнецов)
    Видео
    Идентификатор : 0
    Формат : MPEG-4 Visual
    Профиль формата : Advanced Simple@L5
    Параметр BVOP формата : 1
    Параметр QPel формата : Нет
    Параметр GMC формата : Без точки перехода
    Параметр матрицы формата : Выборочная
    Идентификатор кодека : XVID
    Идентификатор кодека/Подсказка : XviD
    Продолжительность : 1 ч. 30 м.
    Битрейт : 2107 Кбит/сек
    Ширина : 720 пикселей
    Высота : 384 пикселя
    Соотношение сторон : 1,85:1
    Частота кадров : 23,976 кадра/сек
    Цветовое пространство : YUV
    Субдискретизация насыщенности : 4:2:0
    Битовая глубина : 8 бит
    Тип развёртки : Прогрессивная
    Метод сжатия : С потерями
    Бит/(Пиксели*Кадры) : 0.318
    Размер потока : 1,33 Гбайт (91%)
    Библиотека кодирования : XviD 73
    Аудио
    Идентификатор : 1
    Формат : AC-3
    Формат/Информация : Audio Coding 3
    Расширение режима : CM (complete main)
    Параметр Endianness формата : Big
    Идентификатор кодека : 2000
    Продолжительность : 1 ч. 30 м.
    Вид битрейта : Постоянный
    Битрейт : 192 Кбит/сек
    Каналы : 2 канала
    Расположение каналов : Front: L R
    Частота : 48,0 КГц
    Битовая глубина : 16 бит
    Метод сжатия : С потерями
    Размер потока : 124 Мбайт (8%)
    Выравнивание : Разделение по промежуткам
    Продолжительность промежутка : 42 мс. (1,00 видеокадр)
    Время предзагрузки промежутка : 500 мс.

    Скриншоты

    Скачать .torrent

    Скачать торрент-файл бесплатно и на максимальной скорости!

    Как скачивать? · Что такое торрент? · Рейтинг и ограничения

    !ВНИМАНИЕ!
    Сайт не распространяет и не хранит электронные версии произведений, а занимается лишь лишь предоставлением доступа к создаваемому пользователями каталогу ссылок на торрент-файлы, которые содержат только списки хеш-сумм, убедительная просьба с жалобами обращаться напрямую к пользователю. Файлы для обмена на трекере предоставлены пользователями сайта, и администрация не несёт ответственности за их содержание. Просьба не заливать файлы, защищенные авторскими правами, а также файлы нелегального содержания!

    [Профиль] [ЛС]
    Показать сообщения:    
    Ответить на тему

    Текущее время: Сегодня, в 16:00

    Часовой пояс: GMT + 2



    Вы не можете начинать темы
    Вы не можете отвечать на сообщения
    Вы не можете редактировать свои сообщения
    Вы не можете удалять свои сообщения
    Вы не можете голосовать в опросах
    Вы не можете прикреплять файлы к сообщениям
    Вы не можете скачивать файлы