BitTorrentTracker PerecTracker.org
BitTorrentTracker PerecTracker.org
    
Регистрация  ·  Вход
 
 · 
Забыли пароль?

  • Падение Римской Империи / The Fall of the Roman Empire (Энтони Манн / Anthony Mann) [1964, США, драма, военный, исторический, BDRip] MVO + Original + subs (Rus, Eng)

    Ответить на тему
     
    Автор Сообщение

    Columb

    Создавать темы 28-Сен-2013 15:32

           

    [Цитировать]

    Падение Римской Империи / The Fall of the Roman Empire-Год выпуска: 1964
    Выпущено: США
    Жанр: драма, военный, исторический
    Продолжительность: 02:59:57
    Перевод: Профессиональный (многоголосый, закадровый)
    + Оригинальная звуковая дорожка (отдельно)
    Субтитры: Русские, английские (внешние srt*)-Режиссер: Энтони Манн / Anthony Mann
    В ролях: Софи Лорен, Стивен Бойд, Алек Гиннесс, Джеймс Мейсон, Кристофер Пламмер, Энтони Куэйл, Джон Айрленд, Омар Шариф, Мел Феррер, Эрик Портер
    О фильме: Великий цезарь Марк Аврелий умирает от чумы. В преемники ему прочат участника многих успешных военных кампаний, славного полководца Ливия, который, терзаемый сомнениями, делится этим известием с Коммодом, родным сыном цезаря и своим другом. Уделяющий слишком много времени развлечениям, Коммод - по мнению отца, плохой кандидат на столь ответственный государственный пост. Но повеса такого "предательства" не ожидал. С помощью сочувствующих ему интриганов он избавляется от старика и автоматически занимает трон, проводя политику войны вопреки стратегии Марка Аврелия. Ливий, находясь в опале, пытается оказывать ему противодействие через сенат, но развал Империи уже начался....

    Релиз:
    Автор: kingsize87
    Качество: BDRip (источник: CHDBits / Blu-Ray / 1080р)
    Формат: AVI
    Видео: 720x304 (2.37:1), 23,976 fps, XviD build 65 ~1853 kbps avg, 0.35 bit/pixel
    Аудио #1: 48 kHz, AC3 Dolby Digital, 3/2 (L,C,R,l,r) + LFE ch, ~448.00 kbps avg
    Аудио #2: 48 kHz, AC3 Dolby Digital, 3/2 (L,C,R,l,r) + LFE ch, ~448.00 kbps avg eng (отдельно)
    Размер: 2980.00 Mb (2/3 DVD-R)
    --

    MI

    Формат : AVI
    Формат/Информация : Audio Video Interleave
    Профиль формата : OpenDML
    Размер файла : 2,90 Гбайт
    Продолжительность : 2 ч. 59 м.
    Общий поток : 2308 Кбит/сек
    Название фильма : Падение Римской Империи / The Fall of the Roman Empire (1964) BDRip
    Режиссёр : kingsize87
    Программа кодирования : VirtualDubMod 1.5.10.2 (build 2540/release)
    Правообладатель : HQCLUB
    Примечание : 28.09.2013
    Видео
    Идентификатор : 0
    Формат : MPEG-4 Visual
    Профиль формата : Advanced Simple@L5
    Параметр BVOP формата : 1
    Параметр QPel формата : Нет
    Параметр GMC формата : Без точки перехода
    Параметр матрицы формата : Выборочная
    Идентификатор кодека : XVID
    Идентификатор кодека/Подсказка : XviD
    Продолжительность : 2 ч. 59 м.
    Битрейт : 1850 Кбит/сек
    Ширина : 720 пикселей
    Высота : 304 пикселя
    Соотношение сторон : 2,35:1
    Частота кадров : 23,976 кадра/сек
    Цветовое пространство : YUV
    Субдискретизация насыщенности : 4:2:0
    Битовая глубина : 8 бит
    Тип развёртки : Прогрессивная
    Метод сжатия : С потерями
    Бит/(Пиксели*Кадры) : 0.352
    Размер потока : 2,33 Гбайт (80%)
    Библиотека кодирования : XviD 65
    Аудио
    Идентификатор : 1
    Формат : AC-3
    Формат/Информация : Audio Coding 3
    Расширение режима : CM (complete main)
    Параметр Endianness формата : Big
    Идентификатор кодека : 2000
    Продолжительность : 2 ч. 59 м.
    Вид битрейта : Постоянный
    Битрейт : 448 Кбит/сек
    Каналы : 6 каналов
    Расположение каналов : Front: L C R, Side: L R, LFE
    Частота : 48,0 КГц
    Битовая глубина : 16 бит
    Метод сжатия : С потерями
    Размер потока : 577 Мбайт (19%)
    Выравнивание : Разделение по промежуткам
    Продолжительность промежутка : 42 мс. (1,00 видеокадр)
    Время предзагрузки промежутка : 500 мс.
    Скачать .torrent

    Скачать торрент-файл бесплатно и на максимальной скорости!

    Как скачивать? · Что такое торрент? · Рейтинг и ограничения

    !ВНИМАНИЕ!
    Сайт не распространяет и не хранит электронные версии произведений, а занимается лишь лишь предоставлением доступа к создаваемому пользователями каталогу ссылок на торрент-файлы, которые содержат только списки хеш-сумм, убедительная просьба с жалобами обращаться напрямую к пользователю. Файлы для обмена на трекере предоставлены пользователями сайта, и администрация не несёт ответственности за их содержание. Просьба не заливать файлы, защищенные авторскими правами, а также файлы нелегального содержания!

    [Профиль] [ЛС]
    Показать сообщения:    
    Ответить на тему

    Текущее время: Сегодня, в 11:41

    Часовой пояс: GMT + 2



    Вы не можете начинать темы
    Вы не можете отвечать на сообщения
    Вы не можете редактировать свои сообщения
    Вы не можете удалять свои сообщения
    Вы не можете голосовать в опросах
    Вы не можете прикреплять файлы к сообщениям
    Вы не можете скачивать файлы