BitTorrentTracker PerecTracker.org
BitTorrentTracker PerecTracker.org
    
Регистрация  ·  Вход
 
 · 
Забыли пароль?

  • Хюррем Султан / Hürrem Sultan / Серии: 1-8 (8) (Фатих Аксой, Фатманур Севинч) [2003, Турция, Драма, мелодрама, TVRip]

    Ответить на тему
     
    Автор Сообщение

    Columb

    Создавать темы 27-Сен-2013 13:32

           

    [Цитировать]

    Хюррем Султан / Hürrem Sultan
    Год выпуска: 2003
    Страна: Турция
    Производство: Medyapim A.S., UFP Yapim
    Жанр: Драма, мелодрама
    Серии (количество): 8
    Продолжительность: 8x50мин.
    Перевод: профессиональный многоголосый закадровый
    Субтитры: отсутствуют
    Режиссёр: Фатих Аксой, Фатманур Севинч
    В ролях: Гюльбен Эрген, Али Сурмели, Сердар Дениз, Хатис Аслан, Айтен Сойкёк, Йелиз Дограмачилар, Шебнем Кёстем, Эсин Карабаг, Йешим Алич, Айтен Унджуоглу, Дениз Тюркали
    Описание: Сериал основан на реальных событиях, а в его основу легла история об украинке Анастасии Лисовской, более известной как Роксолана, захваченной в плен во время набега на Дикое Поле крымских татар. Судьба привела ее в Стамбул, где она была подарена визирем Ибрагимом-пашой турецкому Султану Сулейману. Казалось бы, дальнейшая ее жизнь должна была оказаться предрешенной, но, даже приняв ислам, она не пожелала покоряться судьбе и сумела изменить сам ход истории. Приняв новое имя Хюррем, юная наложница использовала все свои силы, чтобы добиться своих целей и устранить тех, кто становился у нее на пути.
    Сэмпл: http://multi-up.com/905534
    Качество: TVRip
    Формат: AVI
    Видео кодек: XviD
    Аудио кодек: MP3
    Видео: MPEG-4 Visual,720x400,1883 Кбит/сек,25,000 кадров/сек
    Аудио: MPEG Audio,44,1 КГц,128 Кбит/сек,2 канала

    MI

    Формат : AVI
    Формат/Информация : Audio Video Interleave
    Размер файла : 707 Мбайт
    Продолжительность : 48 м.
    Общий поток : 2023 Кбит/сек
    Программа кодирования : MEncoder SVN-r30881(20100311-gcc4.3.3)
    Библиотека кодирования : MPlayer
    Видео
    Идентификатор : 0
    Формат : MPEG-4 Visual
    Профиль формата : Advanced Simple@L5
    Параметр BVOP формата : 2
    Параметр QPel формата : Нет
    Параметр GMC формата : Без точки перехода
    Параметр матрицы формата : Default (H.263)
    Идентификатор кодека : XVID
    Идентификатор кодека/Подсказка : XviD
    Продолжительность : 48 м.
    Битрейт : 1883 Кбит/сек
    Ширина : 720 пикселей
    Высота : 400 пикселей
    Соотношение сторон : 16:9
    Соотношение сторон в оригинале : 16:9
    Частота кадров : 25,000 кадров/сек
    Цветовое пространство : YUV
    Субдискретизация насыщенности : 4:2:0
    Битовая глубина : 8 бит
    Тип развёртки : Прогрессивная
    Метод сжатия : С потерями
    Бит/(Пиксели*Кадры) : 0.262
    Размер потока : 658 Мбайт (93%)
    Библиотека кодирования : XviD 1.2.1 (UTC 2008-12-04)
    Аудио
    Идентификатор : 1
    Формат : MPEG Audio
    Версия формата : Version 1
    Профиль формата : Layer 3
    Режим : Joint stereo
    Расширение режима : MS Stereo
    Идентификатор кодека : 55
    Идентификатор кодека/Подсказка : MP3
    Продолжительность : 48 м.
    Вид битрейта : Постоянный
    Битрейт : 128 Кбит/сек
    Каналы : 2 канала
    Частота : 44,1 КГц
    Метод сжатия : С потерями
    Задержка видео : 40 мс.
    Размер потока : 44,7 Мбайт (6%)
    Выравнивание : Соединение по промежуткам
    Продолжительность промежутка : 26 мс. (0,65 видеокадр)
    Время предзагрузки промежутка : 522 мс.

    Скриншоты

    Скачать .torrent

    Скачать торрент-файл бесплатно и на максимальной скорости!

    Как скачивать? · Что такое торрент? · Рейтинг и ограничения

    !ВНИМАНИЕ!
    Сайт не распространяет и не хранит электронные версии произведений, а занимается лишь лишь предоставлением доступа к создаваемому пользователями каталогу ссылок на торрент-файлы, которые содержат только списки хеш-сумм, убедительная просьба с жалобами обращаться напрямую к пользователю. Файлы для обмена на трекере предоставлены пользователями сайта, и администрация не несёт ответственности за их содержание. Просьба не заливать файлы, защищенные авторскими правами, а также файлы нелегального содержания!

    [Профиль] [ЛС]
    Показать сообщения:    
    Ответить на тему

    Текущее время: Сегодня, в 22:10

    Часовой пояс: GMT + 2



    Вы не можете начинать темы
    Вы не можете отвечать на сообщения
    Вы не можете редактировать свои сообщения
    Вы не можете удалять свои сообщения
    Вы не можете голосовать в опросах
    Вы не можете прикреплять файлы к сообщениям
    Вы не можете скачивать файлы