BitTorrentTracker PerecTracker.org
BitTorrentTracker PerecTracker.org
    
Регистрация  ·  Вход
 
 · 
Забыли пароль?

  • Калейдоскоп любви / 360 (Фернанду Мейреллиш / Fernando Meirelles) [2011, США, драма, мелодрама, BDRip 720p] MVO (R5) + Original (Eng) + Subs (Eng)

    Ответить на тему
     
    Автор Сообщение

    Columb

    Создавать темы 25-Сен-2013 16:56

           

    [Цитировать]

    Калейдоскоп любви / 360--Страна: Великобритания, Австрия, Франция, Бразилия
    Студия: Östereichisches Filminstitut, BBC Films, Dor Film Produktionsgesellschaft GmbH
    Жанр: драма, мелодрама
    Год выпуска: 2011
    Продолжительность: 01:50:12--Перевод: Профессиональный (многоголосый закадровый) R5
    Cубтитры: английские SDH, английский hardsub (на иностранную речь)
    Оригинальная аудиодорожка: английский--Режиссер: Фернанду Мейреллиш / Fernando Meirelles
    В ролях: Энтони Хопкинс, Джуд Лоу, Рэйчел Вайз, Бен Фостер, Марк Иванир, Мориц Бляйбтрой, Жамель Деббуз, Питер Морган, Тереза Србова, Катрина Васильева, Владимир Вдовиченков--Описание: Они — из разных социальных слоев. Но что-то притягивает их друг к другу. Только секс? Или это все-таки любовь? Ведь человек всегда глубже того, чем он сам думает о себе…
    Несколько современных историй о персонажах из разных городов и стран, объединены в яркий, напряженный, пропитанный ожиданием и проникающий в душу рассказ о любви. Начинаясь в Вене, захватывающее повествование переносит зрителя в Париж, Лондон, Братиславу, Рио, Денвер и Финикс.--imdb| kinopoisk | Сэмпл--Тип релиза: BDRip 720p [360 2011 720p BluRay DTS x264-EbP]
    Контейнер: MKV
    Видео: MPEG-4 AVC / 7000 kbps / 1280x544 / 23,976 fps / 2,35:1 / High Profile 4.1
    Аудио 1: AC3 / 5.1 / 48 kHz / 448 kbps / 16 bits |MVO, R5|
    Аудио 2: DTS / 5.1 / 48 kHz / 1510 kbps / 16 bits |original|
    Формат субтитров: softsub [SRT]

    MediaInfo

    Общее
    Уникальный идентификатор : 255073516553909778836600922052941246080 (0xBFE55F52AA7DEF8592EE43BA6912EE80)
    Полное имя : G:\HD\Калейдоскоп любви.2012.BDRip.(720p).mkv
    Формат : Matroska
    Версия формата : Version 2
    Размер файла : 6,89 Гбайт
    Продолжительность : 1 ч. 50 м.
    Общий поток : 8957 Кбит/сек
    Дата кодирования : UTC 2013-09-21 16:23:13
    Программа кодирования : mkvmerge v5.8.0 ('No Sleep / Pillow') built on Sep 2 2012 15:37:04
    Библиотека кодирования : libebml v1.2.3 + libmatroska v1.3.0
    Attachment : Yes
    Видео
    Идентификатор : 1
    Формат : AVC
    Формат/Информация : Advanced Video Codec
    Профиль формата : High@L4.1
    Параметр CABAC формата : Да
    Параметр ReFrames формата : 9 кадров
    Идентификатор кодека : V_MPEG4/ISO/AVC
    Продолжительность : 1 ч. 50 м.
    Битрейт : 7000 Кбит/сек
    Ширина : 1280 пикселей
    Высота : 544 пикселя
    Соотношение сторон : 2,35:1
    Режим частоты кадров : Постоянный
    Частота кадров : 23,976 кадра/сек
    Цветовое пространство : YUV
    Субдискретизация насыщенности : 4:2:0
    Битовая глубина : 8 бит
    Тип развёртки : Прогрессивная
    Бит/(Пиксели*Кадры) : 0.419
    Размер потока : 5,25 Гбайт (76%)
    Заголовок : 360 2011 720p BluRay DTS x264-EbP
    Библиотека кодирования : x264 core 128 r2216 198a7ea
    Настройки программы : cabac=1 / ref=9 / deblock=1:-3:-3 / analyse=0x3:0x113 / me=tesa / subme=11 / psy=1 / psy_rd=1.05:0.00 / mixed_ref=1 / me_range=16 / chroma_me=1 / trellis=2 / 8x8dct=1 / cqm=0 / deadzone=21,11 / fast_pskip=0 / chroma_qp_offset=-2 / threads=12 / lookahead_threads=2 / sliced_threads=0 / nr=0 / decimate=0 / interlaced=0 / bluray_compat=0 / constrained_intra=0 / bframes=8 / b_pyramid=2 / b_adapt=2 / b_bias=0 / direct=3 / weightb=1 / open_gop=0 / weightp=2 / keyint=250 / keyint_min=23 / scenecut=40 / intra_refresh=0 / rc=2pass / mbtree=0 / bitrate=7000 / ratetol=1.0 / qcomp=0.60 / qpmin=0 / qpmax=69 / qpstep=4 / cplxblur=20.0 / qblur=0.5 / ip_ratio=1.40 / pb_ratio=1.30 / aq=1:0.60
    Язык : English
    Default : Да
    Forced : Нет
    Аудио #1
    Идентификатор : 2
    Формат : AC-3
    Формат/Информация : Audio Coding 3
    Расширение режима : CM (complete main)
    Параметр Endianness формата : Big
    Идентификатор кодека : A_AC3
    Продолжительность : 1 ч. 50 м.
    Вид битрейта : Постоянный
    Битрейт : 448 Кбит/сек
    Каналы : 6 каналов
    Расположение каналов : Front: L C R, Side: L R, LFE
    Частота : 48,0 КГц
    Битовая глубина : 16 бит
    Метод сжатия : С потерями
    Размер потока : 353 Мбайт (5%)
    Заголовок : MVO, R5
    Язык : Russian
    Default : Да
    Forced : Нет
    Аудио #2
    Идентификатор : 3
    Формат : DTS
    Формат/Информация : Digital Theater Systems
    Режим : 16
    Параметр Endianness формата : Big
    Идентификатор кодека : A_DTS
    Продолжительность : 1 ч. 50 м.
    Вид битрейта : Постоянный
    Битрейт : 1509 Кбит/сек
    Каналы : 6 каналов
    Расположение каналов : Front: L C R, Side: L R, LFE
    Частота : 48,0 КГц
    Битовая глубина : 16 бит
    Метод сжатия : С потерями
    Размер потока : 1,16 Гбайт (17%)
    Язык : English
    Default : Нет
    Forced : Нет
    Текст
    Идентификатор : 4
    Формат : UTF-8
    Идентификатор кодека : S_TEXT/UTF8
    Идентификатор кодека/Информация : UTF-8 Plain Text
    Заголовок : SDH
    Язык : English
    Default : Нет
    Forced : Нет
    Меню
    00:00:00.000 : :Fork in the Road
    00:09:47.086 : :Client
    00:17:43.729 : :Following
    00:31:08.825 : :Daughter's Play
    00:37:20.112 : :Prisoner
    00:46:21.570 : :Temptations
    01:02:08.474 : :"See You Next Time"
    01:15:42.955 : :Negligent
    01:20:43.088 : :The Boss
    01:26:03.158 : :Circle
    01:37:47.069 : :"Come On, Let's Go!"
    01:44:42.567 : :Credits

    Скриншоты

    Дополнительно

    За русскую дорогу спасибо Youtracker
    Скачать .torrent

    Скачать торрент-файл бесплатно и на максимальной скорости!

    Как скачивать? · Что такое торрент? · Рейтинг и ограничения

    !ВНИМАНИЕ!
    Сайт не распространяет и не хранит электронные версии произведений, а занимается лишь лишь предоставлением доступа к создаваемому пользователями каталогу ссылок на торрент-файлы, которые содержат только списки хеш-сумм, убедительная просьба с жалобами обращаться напрямую к пользователю. Файлы для обмена на трекере предоставлены пользователями сайта, и администрация не несёт ответственности за их содержание. Просьба не заливать файлы, защищенные авторскими правами, а также файлы нелегального содержания!

    [Профиль] [ЛС]
    Показать сообщения:    
    Ответить на тему

    Текущее время: Сегодня, в 22:17

    Часовой пояс: GMT + 2



    Вы не можете начинать темы
    Вы не можете отвечать на сообщения
    Вы не можете редактировать свои сообщения
    Вы не можете удалять свои сообщения
    Вы не можете голосовать в опросах
    Вы не можете прикреплять файлы к сообщениям
    Вы не можете скачивать файлы