BitTorrentTracker PerecTracker.org
BitTorrentTracker PerecTracker.org
    
Регистрация  ·  Вход
 
 · 
Забыли пароль?

  • Все копы - ублюдки / A.C.A.B.: All Cops Are Bastards (Стефано Соллима / Stefano Sollima) [2012, Франция, Италия, боевик, драма, криминал, HDRip] DVO (студия Elrom) + Original Ita

    Ответить на тему
     
    Автор Сообщение

    Columb

    Создавать темы 25-Сен-2013 16:05

           

    [Цитировать]

    Все копы - ублюдки / A.C.A.B.: All Cops Are Bastards
    Страна: Франция, Италия
    Жанр: боевик, драма, криминал
    Год выпуска: 2012
    Продолжительность: 01:49:37
    Перевод: Профессиональный (двухголосый закадровый) студия Elrom
    Cубтитры: нет
    Оригинальная аудиодорожка: итальянский
    Режиссер: Стефано Соллима / Stefano Sollima
    В ролях: Пьерфранческо Фавино /Pierfrancesco Favino/, Филиппо Нигро /Filippo Nigro/, Марко Джаллини /Marco Giallini/, Андреа Старторетти /Andrea Sartoretti/, Доменико Дьеле /Domenico Diele/, Роберта Спаньюоло /Roberta Spagnuolo/, Еудженио Мастрандреа /Eugenio Mastrandrea/, Эрадис Жосенде Оберто /Eradis Josende Oberto/
    Описание: Адриано молодой новобранец полицейского подразделения по борьбе с массовыми беспорядками в Риме. Его напарниками и учителями станут трое опытных полицейских Негро, Мазинга и Кобра, известные своей жестокостью и нетерпимостью по отношению к нарушителям закона. Вскоре Адриано начинает понимать, что в их привычном методе работы что-то не так.
    Доп. информация:
    Производство: Cattleya, Babe Film, Rai Cinema (Франция, Италия)
    IMDB
    Sample
    Качество видео: HDRip
    Формат видео: AVI
    Видео: Xvid 720x304 24.00fps 1516kbps
    Аудио: MPEG Audio Layer 3 48000Hz stereo 128kbps [Рус]
    Аудио 2: MPEG Audio Layer 3 48000Hz stereo 128kbps [It]

    MediaInfo

    General
    Complete name : D:\Downloads\A C A B All Cops Are Bastards 2012 HQ AC3 DD5 1 Externe Ned Eng Subs TBS\Vse.kopy.ublyudki.2012.HDrip.XviD.Rus-It_25KADR.avi
    Format : AVI
    Format/Info : Audio Video Interleave
    File size : 1.37 GiB
    Duration : 1h 49mn
    Overall bit rate : 1 786 Kbps
    Movie name : Vse Kopy Ublyudki 2012
    Original source form/Distributed : Vse.kopy.ubljudki.2012.L1.HDRip.avi
    Genre : Drama
    Copyright : 25KADR
    Comment : DVO (Elrom studio)
    Video
    ID : 0
    Format : MPEG-4 Visual
    Format profile : Advanced Simple@L5
    Format settings, BVOP : Yes
    Format settings, QPel : No
    Format settings, GMC : No warppoints
    Format settings, Matrix : Default (MPEG)
    Codec ID : XVID
    Codec ID/Hint : XviD
    Duration : 1h 49mn
    Bit rate : 1 516 Kbps
    Width : 720 pixels
    Height : 304 pixels
    Display aspect ratio : 2.35:1
    Frame rate : 24.000 fps
    Color space : YUV
    Chroma subsampling : 4:2:0
    Bit depth : 8 bits
    Scan type : Progressive
    Bits/(Pixel*Frame) : 0.289
    Stream size : 1.16 GiB (85%)
    Writing library : XviD 1.2.1 (UTC 2008-12-04)
    Audio #1
    ID : 1
    Format : MPEG Audio
    Format version : Version 1
    Format profile : Layer 3
    Mode : Joint stereo
    Mode extension : MS Stereo
    Codec ID : 55
    Codec ID/Hint : MP3
    Duration : 1h 49mn
    Bit rate mode : Constant
    Bit rate : 128 Kbps
    Channel(s) : 2 channels
    Sampling rate : 48.0 KHz
    Stream size : 100 MiB (7%)
    Alignment : Aligned on interleaves
    Interleave, duration : 42 ms (1.00 video frame)
    Interleave, preload duration : 504 ms
    Audio #2
    ID : 2
    Format : MPEG Audio
    Format version : Version 1
    Format profile : Layer 3
    Mode : Joint stereo
    Mode extension : MS Stereo
    Codec ID : 55
    Codec ID/Hint : MP3
    Duration : 1h 49mn
    Bit rate mode : Constant
    Bit rate : 128 Kbps
    Channel(s) : 2 channels
    Sampling rate : 48.0 KHz
    Stream size : 100 MiB (7%)
    Alignment : Aligned on interleaves
    Interleave, duration : 42 ms (1.00 video frame)
    Interleave, preload duration : 504 ms

    Скриншоты

    Скачать .torrent

    Скачать торрент-файл бесплатно и на максимальной скорости!

    Как скачивать? · Что такое торрент? · Рейтинг и ограничения

    !ВНИМАНИЕ!
    Сайт не распространяет и не хранит электронные версии произведений, а занимается лишь лишь предоставлением доступа к создаваемому пользователями каталогу ссылок на торрент-файлы, которые содержат только списки хеш-сумм, убедительная просьба с жалобами обращаться напрямую к пользователю. Файлы для обмена на трекере предоставлены пользователями сайта, и администрация не несёт ответственности за их содержание. Просьба не заливать файлы, защищенные авторскими правами, а также файлы нелегального содержания!

    [Профиль] [ЛС]
    Показать сообщения:    
    Ответить на тему

    Текущее время: Сегодня, в 12:30

    Часовой пояс: GMT + 2



    Вы не можете начинать темы
    Вы не можете отвечать на сообщения
    Вы не можете редактировать свои сообщения
    Вы не можете удалять свои сообщения
    Вы не можете голосовать в опросах
    Вы не можете прикреплять файлы к сообщениям
    Вы не можете скачивать файлы