BitTorrentTracker PerecTracker.org
BitTorrentTracker PerecTracker.org
    
Регистрация  ·  Вход
 
 · 
Забыли пароль?

  • Любовь и прочие неприятности / Failure to Launch (Том Дей / Tom Dey) [2006, США, Романтическая комедия, BDRip] Dub (R5) + AVO (Ю. Немахов) + MVO + DVO (СТС) + Original Eng

    Ответить на тему
     
    Автор Сообщение

    Columb

    Создавать темы 23-Сен-2013 20:59

           

    [Цитировать]

    Любовь и прочие неприятности / Failure to Launch
    Страна: США
    Жанр: Романтическая комедия
    Год выпуска: 2006
    Продолжительность: 01:36:20
    Перевод: Профессиональный (дублированный) R5
    Перевод 2: Авторский (одноголосый закадровый) Ю,Немахов
    Перевод 3: Профессиональный (многоголосый закадровый)
    Перевод 4: Профессиональный (двухголосый закадровый) СТС
    Cубтитры: нет
    Оригинальная аудиодорожка: английский
    Режиссер: Том Дей / Tom Dey
    В ролях: Мэттью МакКонахи, Сара Джессика Паркер, Зои Дешанель, Джастин Барта, Брэдли Купер, Терри Брэдшоу, Кэти Бейтс, Тайрел Джексон Уильямс, Кэтрин Уинник, Роб Кордри
    Описание: Несмотря на свои 30 с лишним лет, красавчик Трипп никак не решается покинуть отчий дом и обзавестись собственным семейным гнездышком. На это у него всякий раз находятся веские, по его мнению, причины.
    Но однажды родители Триппа сами взялись за устройство его судьбы. Они наняли красивую и талантливую девушку, надеясь, что их сын, влюбившись в нее, наконец оставит их дом…
    Релиз от: &
    Сэмпл: http://sendfile.su/870361
    Качество видео: BDRip (Failure.to.Launch.2006.Blu-Ray Disc 1080p)
    Формат видео: AVI
    Видео: 720x304 (2.35:1), 23.976 fps, XviD MPEG-4 ~1947 kbps avg, 0.371 bit/pixel
    Аудио: 48 kHz, AC3 Dolby Digital 6 ch, 384.00 kbps / Дубляж (R5)
    Аудио 2: 48 kHz, AC3 Dolby Digital 6 ch, 448.00 kbps / Авторский (одноголосый закадровый) Ю,Немахов
    Аудио 3: 48 kHz, AC3 Dolby Digital 6 ch, 448.00 kbps / Оригинал (Английский)
    Аудио 4: 48 kHz, AC3 Dolby Digital 6 ch, 448.00 kbps / Профессиональный (многоголосый закадровый) / внешняя
    Аудио 5: 48 kHz, AC3 Dolby Digital 2 ch, 192.00 kbps / Профессиональный (двухголосый закадровый) СТС / внешняя

    MediaInfo

    Общее
    Полное имя : C:\Users\к\Desktop\кино\Failure.to.Launch.2006.BDRip\Failure to Launch.2006.BDRip.avi
    Формат : AVI
    Формат/Информация : Audio Video Interleave
    Профиль формата : OpenDML
    Размер файла : 2,19 Гбайт
    Продолжительность : 1 ч. 36 м.
    Общий поток : 3250 Кбит/сек
    Видео
    Идентификатор : 0
    Формат : MPEG-4 Visual
    Профиль формата : Advanced Simple@L5
    Параметр BVOP формата : 1
    Параметр QPel формата : Нет
    Параметр GMC формата : Без точки перехода
    Параметр матрицы формата : Выборочная
    Идентификатор кодека : XVID
    Идентификатор кодека/Подсказка : XviD
    Продолжительность : 1 ч. 36 м.
    Битрейт : 1947 Кбит/сек
    Ширина : 720 пикселей
    Высота : 304 пикселя
    Соотношение сторон : 2,35:1
    Частота кадров : 23,976 кадра/сек
    Цветовое пространство : YUV
    Субдискретизация насыщенности : 4:2:0
    Битовая глубина : 8 бит
    Тип развёртки : Прогрессивная
    Метод сжатия : С потерями
    Бит/(Пиксели*Кадры) : 0.371
    Размер потока : 1,31 Гбайт (60%)
    Библиотека кодирования : XviD 65
    Аудио #1
    Идентификатор : 1
    Формат : AC-3
    Формат/Информация : Audio Coding 3
    Расширение режима : CM (complete main)
    Параметр Endianness формата : Big
    Идентификатор кодека : 2000
    Продолжительность : 1 ч. 36 м.
    Вид битрейта : Постоянный
    Битрейт : 384 Кбит/сек
    Каналы : 6 каналов
    Расположение каналов : Front: L C R, Side: L R, LFE
    Частота : 48,0 КГц
    Битовая глубина : 16 бит
    Метод сжатия : С потерями
    Размер потока : 264 Мбайт (12%)
    Выравнивание : Разделение по промежуткам
    Продолжительность промежутка : 42 мс. (1,00 видеокадр)
    Время предзагрузки промежутка : 500 мс.
    Заголовок : Дубляж (R5)
    Аудио #2
    Идентификатор : 2
    Формат : AC-3
    Формат/Информация : Audio Coding 3
    Расширение режима : CM (complete main)
    Параметр Endianness формата : Big
    Идентификатор кодека : 2000
    Продолжительность : 1 ч. 36 м.
    Вид битрейта : Постоянный
    Битрейт : 448 Кбит/сек
    Каналы : 6 каналов
    Расположение каналов : Front: L C R, Side: L R, LFE
    Частота : 48,0 КГц
    Битовая глубина : 16 бит
    Метод сжатия : С потерями
    Размер потока : 309 Мбайт (14%)
    Выравнивание : Разделение по промежуткам
    Продолжительность промежутка : 42 мс. (1,00 видеокадр)
    Время предзагрузки промежутка : 500 мс.
    Заголовок : Авторский (одноголосый закадровый) Ю,Немахов
    Аудио #3
    Идентификатор : 3
    Формат : AC-3
    Формат/Информация : Audio Coding 3
    Расширение режима : CM (complete main)
    Параметр Endianness формата : Big
    Идентификатор кодека : 2000
    Продолжительность : 1 ч. 36 м.
    Вид битрейта : Постоянный
    Битрейт : 448 Кбит/сек
    Каналы : 6 каналов
    Расположение каналов : Front: L C R, Side: L R, LFE
    Частота : 48,0 КГц
    Битовая глубина : 16 бит
    Метод сжатия : С потерями
    Размер потока : 309 Мбайт (14%)
    Выравнивание : Разделение по промежуткам
    Продолжительность промежутка : 42 мс. (1,00 видеокадр)
    Время предзагрузки промежутка : 500 мс.
    Заголовок : Оригинал (Английский)

    Скриншот c названием фильма

    Скриншоты

    Скачать .torrent

    Скачать торрент-файл бесплатно и на максимальной скорости!

    Как скачивать? · Что такое торрент? · Рейтинг и ограничения

    !ВНИМАНИЕ!
    Сайт не распространяет и не хранит электронные версии произведений, а занимается лишь лишь предоставлением доступа к создаваемому пользователями каталогу ссылок на торрент-файлы, которые содержат только списки хеш-сумм, убедительная просьба с жалобами обращаться напрямую к пользователю. Файлы для обмена на трекере предоставлены пользователями сайта, и администрация не несёт ответственности за их содержание. Просьба не заливать файлы, защищенные авторскими правами, а также файлы нелегального содержания!

    [Профиль] [ЛС]
    Показать сообщения:    
    Ответить на тему

    Текущее время: Сегодня, в 06:57

    Часовой пояс: GMT + 2



    Вы не можете начинать темы
    Вы не можете отвечать на сообщения
    Вы не можете редактировать свои сообщения
    Вы не можете удалять свои сообщения
    Вы не можете голосовать в опросах
    Вы не можете прикреплять файлы к сообщениям
    Вы не можете скачивать файлы