BitTorrentTracker PerecTracker.org
BitTorrentTracker PerecTracker.org
    
Регистрация  ·  Вход
 
 · 
Забыли пароль?

  • Размышления и предостережения: Интервью с Аароном Руссо / Reflections And Warnings: An Interview With Aaron Russo (Алекс Джонс (Alex Jones)) [2007, Документальное, WEBRip]

    Ответить на тему
     
    Автор Сообщение

    Columb

    Создавать темы 22-Сен-2013 15:59

           

    [Цитировать]

    Размышления и предостережения: Интервью с Аароном Руссо / Reflections And Warnings: An Interview With Aaron RussoГод выпуска: 2007
    Страна: США
    Жанр: Документальное
    Продолжительность: 01:35:45
    Перевод: Одноголосый закадровый (dustfire)
    Русские субтитры: есть
    Режиссер: Алекс Джонс (Alex Jones)
    Описание: Наконец-то переведено и озвучено полное интервью Аарона Руссо, где он разоблачает планы Рокфеллеров и основных банкирских семей (записано Алексом Джонсом 29 января 2007 года). Именно они являются подлинными организаторами терактов 11 сентября 2001 и последующей бесконечной войны с призрачным "мировым терроризмом", а также создателями феминизма, движений за права ЛГБТ (цель – разрушение института семьи) и авторами концепций по глобальному "принуждению к демократии" (разрушение института национальной власти и её преемственности). Все эти преступления терзают нашу планету уже давно, но особенно сильно с начала XXI века.
    Ирак, Иран, Афганистан, Ливия, Сирия, Египет, Турция – это всё следствия, "круги на воде от камней", которые бросают Они. Про Них и рассказывает Аарон Руссо.
    Уникальность интервью в том, что это личное свидетельство о планах банкиров (в т.ч. Рокфеллеров) от хорошо известного в США человека, Аарона Руссо:
      режиссёра (в т.ч. одного из фильмов с Эдди Мерфи и фильма-расследования "Америка: от свободы к фашизму");
      общественного деятеля и телеведущего – шоу "Mad As Hell" (Злой как чёрт);
      политика – кандидата в губернаторы штата Невада, занявшего 2-е место с почти 30% голосов;
      создателя политической организации "Restore the Republic" (Возрождение Республики).
    Аарона Руссо безуспешно пытался завербовать в Совет по международным отношениям Николас Рокфеллер, заходя издалека и как бы на хорошей "невинной" основе – работать над развитием мировой демократии и межгосударственного диалога. Он был нужен Им из-за своей известности и умения убеждать людей, вести их за собой. Руссо отказался с ними сотрудничать.
    К сожалению, Аарон Руссо скончался в одном из онкологических центров Лос-Анджелеса 24 августа 2007 года (в возрасте 64 лет), примерно через 7 месяцев после встречи с Алексом Джонсом и записи данного интервью.
    Памяти Аарона Руссо – человека, который не побоялся сказать правду, – посвящается перевод фильма на русский язык.
    P.S. Видео переведено и озвучено на частное пожертвование.

    Дополнительно

    Оригинальный текст интервью и русский перевод со ссылками по теме можете скачать отсюда:Яндекс.Диск.
    Подробный разбор полётов со ссылками, подтверждающими приведённую информацию – тут.
    ОЧЕНЬ НУЖНА ПОМОЩЬ В РАСПРОСТРАНЕНИИ ВИДЕО. Кто где может – выкладывайте ссылку, встраивайте, копируйте себе исходник и т.п. Там масса уникальной информации, особенно потому, что это личное свидетельство, а не какие-то домыслы. Что будет веским аргументом для убеждения тех чудаков, кто всё ещё "не верит в мировые заговоры".
    Сэмпл: http://multi-up.com/905408
    качество: WEBRip
    формат: AVI
    Видео: XviD 1.2.1, 576х384 (16:9), 914 Kbps, 23.976 fps
    Аудио #1 (RU): AC-3, 128 Kbps, 48.0 KHz, 2 канала
    Аудио #2 (EN): MP3, 96 Kbps, 44.1 KHz, 2 канала

    MediaInfo

    Format : AVI
    Format/Info : Audio Video Interleave
    File size : 789 MiB
    Duration : 1h 35mn
    Overall bit rate : 1 152 Kbps
    Writing application : VirtualDubMod 1.5.10.2 (build 2540/release)
    Writing library : VirtualDubMod build 2540/release
    Video
    ID : 0
    Format : MPEG-4 Visual
    Format profile : Simple@L3
    Format settings, BVOP : No
    Format settings, QPel : No
    Format settings, GMC : No warppoints
    Format settings, Matrix : Default (H.263)
    Codec ID : XVID
    Codec ID/Hint : XviD
    Duration : 1h 35mn
    Bit rate : 914 Kbps
    Width : 576 pixels
    Height : 384 pixels
    Display aspect ratio : 16:9
    Frame rate : 23.976 fps
    Color space : YUV
    Chroma subsampling : 4:2:0
    Bit depth : 8 bits
    Scan type : Progressive
    Bits/(Pixel*Frame) : 0.172
    Stream size : 626 MiB (79%)
    Writing library : XviD 1.2.1 (UTC 2008-12-04)
    Audio #1
    ID : 1
    Format : AC-3
    Format/Info : Audio Coding 3
    Mode extension : CM (complete main)
    Codec ID : 2000
    Duration : 1h 35mn
    Bit rate mode : Constant
    Bit rate : 128 Kbps
    Channel(s) : 2 channels
    Channel positions : Front: L R
    Sampling rate : 48.0 KHz
    Stream size : 87.7 MiB (11%)
    Alignment : Split accross interleaves
    Interleave, duration : 42 ms (1.00 video frame)
    Interleave, preload duration : 500 ms
    Audio #2
    ID : 2
    Format : MPEG Audio
    Format version : Version 1
    Format profile : Layer 3
    Mode : Joint stereo
    Mode extension : MS Stereo
    Codec ID : 55
    Codec ID/Hint : MP3
    Duration : 1h 35mn
    Bit rate mode : Constant
    Bit rate : 96.0 Kbps
    Channel(s) : 2 channels
    Sampling rate : 44.1 KHz
    Stream size : 65.7 MiB (8%)
    Alignment : Split accross interleaves
    Interleave, duration : 42 ms (1.00 video frame)
    Interleave, preload duration : 500 ms

    Скриншоты

    Скачать .torrent

    Скачать торрент-файл бесплатно и на максимальной скорости!

    Как скачивать? · Что такое торрент? · Рейтинг и ограничения

    !ВНИМАНИЕ!
    Сайт не распространяет и не хранит электронные версии произведений, а занимается лишь лишь предоставлением доступа к создаваемому пользователями каталогу ссылок на торрент-файлы, которые содержат только списки хеш-сумм, убедительная просьба с жалобами обращаться напрямую к пользователю. Файлы для обмена на трекере предоставлены пользователями сайта, и администрация не несёт ответственности за их содержание. Просьба не заливать файлы, защищенные авторскими правами, а также файлы нелегального содержания!

    [Профиль] [ЛС]
    Показать сообщения:    
    Ответить на тему

    Текущее время: Сегодня, в 18:25

    Часовой пояс: GMT + 2



    Вы не можете начинать темы
    Вы не можете отвечать на сообщения
    Вы не можете редактировать свои сообщения
    Вы не можете удалять свои сообщения
    Вы не можете голосовать в опросах
    Вы не можете прикреплять файлы к сообщениям
    Вы не можете скачивать файлы