BitTorrentTracker PerecTracker.org
BitTorrentTracker PerecTracker.org
    
Регистрация  ·  Вход
 
 · 
Забыли пароль?

  • Связи нет / Disconnect (Генри Алекс Рубин / Henry Alex Rubin) [2012, США, триллер, драма, HDRip] DVO

    Ответить на тему
     
    Автор Сообщение

    Columb

    Создавать темы 22-Сен-2013 13:15

           

    [Цитировать]

    Связи нет / Disconnect
    «Look Up»
    Страна: США
    Жанр: триллер, драма
    Год выпуска: 2012
    Продолжительность: 01:55:39
    Перевод: Любительский (двухголосый закадровый) [Zelesk] и [Анна Завразина]
    Cубтитры: нет
    Оригинальная аудиодорожка: нет-Режиссер: Генри Алекс Рубин / Henry Alex Rubin
    В ролях: Джейсон Бейтман, Хоуп Дэвис, Фрэнк Грилло, Микаэл Нюквист, Пола Пэттон, Андреа Райзборо, Александр Скарсгард, Макс Тириот, Колин Форд, Джона Бобо-Описание: Рассказ идет про группу современных людей, которые пытаются наладить взаимоотношения с окружающими на фоне «проводного» мира современных технологий. Это самая большая загадка человечества — почему новейшие технологии, призванные объединять людей, на самом деле создают огромную пропасть между ними.-Доп. информация: Подготовка перевода и субтитров [zelesk]


    -Качество видео: HDRip Disconnect (2012) 1080p BluRay AC3+DTS HQ-BR Eng NL Subs
    Формат видео: AVI
    Видео: XviD, 720x400 (16:9), 23,976 fps, ~2382 kbps avg, 0.34 bit/pixel
    Аудио: 48 kHz, AC3 Dolby Digital, 2/0 (L,R) ch, ~192 kbps

    MediaInfo

    Общее
    Полное имя : D:\AVI\Disconnect_2012.avi
    Формат : AVI
    Формат/Информация : Audio Video Interleave
    Профиль формата : OpenDML
    Размер файла : 2,09 Гбайт
    Продолжительность : 1 ч. 55 м.
    Общий поток : 2586 Кбит/сек
    Программа кодирования : VirtualDubMod 1.5.10.2 (build 2540/release)
    Библиотека кодирования : VirtualDubMod build 2540/release
    Видео
    Идентификатор : 0
    Формат : MPEG-4 Visual
    Профиль формата : Advanced Simple@L5
    Параметр BVOP формата : 1
    Параметр QPel формата : Нет
    Параметр GMC формата : Без точки перехода
    Параметр матрицы формата : Default (MPEG)
    Идентификатор кодека : XVID
    Идентификатор кодека/Подсказка : XviD
    Продолжительность : 1 ч. 55 м.
    Битрейт : 2382 Кбит/сек
    Ширина : 720 пикселей
    Высота : 400 пикселей
    Соотношение сторон : 1,85:1
    Соотношение сторон в оригинале : 16:9
    Частота кадров : 23,976 кадра/сек
    Цветовое пространство : YUV
    Субдискретизация насыщенности : 4:2:0
    Битовая глубина : 8 бит
    Тип развёртки : Прогрессивная
    Метод сжатия : С потерями
    Бит/(Пиксели*Кадры) : 0.345
    Размер потока : 1,92 Гбайт (92%)
    Библиотека кодирования : XviD 64
    Аудио
    Идентификатор : 1
    Формат : AC-3
    Формат/Информация : Audio Coding 3
    Расширение режима : CM (complete main)
    Параметр Endianness формата : Big
    Идентификатор кодека : 2000
    Продолжительность : 1 ч. 55 м.
    Вид битрейта : Постоянный
    Битрейт : 192 Кбит/сек
    Каналы : 2 канала
    Расположение каналов : Front: L R
    Частота : 48,0 КГц
    Битовая глубина : 16 бит
    Метод сжатия : С потерями
    Размер потока : 159 Мбайт (7%)
    Выравнивание : Разделение по промежуткам
    Продолжительность промежутка : 42 мс. (1,00 видеокадр)
    Время предзагрузки промежутка : 500 мс.

    Скриншоты

    Скачать .torrent

    Скачать торрент-файл бесплатно и на максимальной скорости!

    Как скачивать? · Что такое торрент? · Рейтинг и ограничения

    !ВНИМАНИЕ!
    Сайт не распространяет и не хранит электронные версии произведений, а занимается лишь лишь предоставлением доступа к создаваемому пользователями каталогу ссылок на торрент-файлы, которые содержат только списки хеш-сумм, убедительная просьба с жалобами обращаться напрямую к пользователю. Файлы для обмена на трекере предоставлены пользователями сайта, и администрация не несёт ответственности за их содержание. Просьба не заливать файлы, защищенные авторскими правами, а также файлы нелегального содержания!

    [Профиль] [ЛС]
    Показать сообщения:    
    Ответить на тему

    Текущее время: Сегодня, в 21:29

    Часовой пояс: GMT + 2



    Вы не можете начинать темы
    Вы не можете отвечать на сообщения
    Вы не можете редактировать свои сообщения
    Вы не можете удалять свои сообщения
    Вы не можете голосовать в опросах
    Вы не можете прикреплять файлы к сообщениям
    Вы не можете скачивать файлы