BitTorrentTracker PerecTracker.org
BitTorrentTracker PerecTracker.org
    
Регистрация  ·  Вход
 
 · 
Забыли пароль?

  • Купола Успенского (Ирина Пилар) [2007 г., Православно-познавательный, DVDRip]

    Ответить на тему
     
    Автор Сообщение

    Columb

    Создавать темы 22-Сен-2013 11:50

           

    [Цитировать]

    Купола Успенского
    Год выпуска: 2007
    Страна: Россия
    Жанр: Православно-познавательный
    Продолжительность: 00:47:18
    Перевод: Не требуется
    Русские субтитры: нет
    Режиссер: И. Пилар
    Описание: Самый большой православный храм в Западной Европе и Скандинавии - Успенский собор был построен в XIX веке, в царствование Александра II.
    Первый документ о соборе датирован 1857 годом. Составление архитектурного проекта и строительство храма заняли 11 лет.
    Торжественное освящение состоялось 13 октября 1868 года епископом Выборгским Павлом.
    Храм освящен во имя Успения Пресвятой Богородицы и провозглашен Успенским Кафедральным собором.
    Перед глазами зрителя пройдут не только исторические воспоминания, но и сегодняшняя насыщенная жизнь прихожан Успенского храма и всего Гельсингфорсского православного прихода.
    Доп. информация: Это ознакомительная версия фильма (без меню), не содержащая комментарии протоиерея Вейкко Пурмонена (ученика протопресвитера Александра Шмемана), короче оригинальной на 16 минут.
    Сэмпл: http://www.sendspace.com/file/f1duyw
    Качество: DVDRip
    Формат: AVI
    Видео: 2380 Кбит/сек, 720*554 (4:3), в 25,000 кадров/сек, MPEG-4 Visual (XviD) (Advanced Simple@L5) (BVOP2 / Custom Matrix)
    Аудио: Русский, 128 Кбит/сек, 48,0 КГц, 2 канала, MPEG Audio (MP3) (Version 1) (Layer 3)

    MediaInfo

    Общее
    Формат : AVI
    Формат/Информация : Audio Video Interleave
    Размер файла : 559 Мбайт
    Продолжительность : 31 м.
    Общий поток : 2521 Кбит/сек
    Видео
    Идентификатор : 0
    Формат : MPEG-4 Visual
    Профиль формата : Advanced Simple@L5
    Параметр BVOP формата : 2
    Параметр QPel формата : Нет
    Параметр GMC формата : Без точки перехода
    Параметр матрицы формата : Выборочная
    Идентификатор кодека : XVID
    Идентификатор кодека/Подсказка : XviD
    Продолжительность : 31 м.
    Битрейт : 2380 Кбит/сек
    Ширина : 720 пикселей
    Высота : 554 пикселя
    Соотношение сторон : 4:3
    Частота кадров : 25,000 кадров/сек
    Цветовое пространство : YUV
    Субдискретизация насыщенности : 4:2:0
    Битовая глубина : 8 бит
    Тип развёртки : Прогрессивная
    Метод сжатия : С потерями
    Бит/(Пиксели*Кадры) : 0.239
    Размер потока : 528 Мбайт (94%)
    Библиотека кодирования : XviD 1.2.1 (UTC 2008-12-04)
    Аудио
    Идентификатор : 1
    Формат : MPEG Audio
    Версия формата : Version 1
    Профиль формата : Layer 3
    Идентификатор кодека : 55
    Идентификатор кодека/Подсказка : MP3
    Продолжительность : 30 м.
    Продолжительность оригинала : 30 м.
    Вид битрейта : Постоянный
    Битрейт : 128 Кбит/сек
    Каналы : 2 канала
    Частота : 48,0 КГц
    Метод сжатия : С потерями
    Размер потока : 28,4 Мбайт (5%)
    Выравнивание : Разделение по промежуткам
    Продолжительность промежутка : 24 мс. (0,60 видеокадр)
    Библиотека кодирования : LAMEЂ

    Скриншоты

    Скачать .torrent

    Скачать торрент-файл бесплатно и на максимальной скорости!

    Как скачивать? · Что такое торрент? · Рейтинг и ограничения

    !ВНИМАНИЕ!
    Сайт не распространяет и не хранит электронные версии произведений, а занимается лишь лишь предоставлением доступа к создаваемому пользователями каталогу ссылок на торрент-файлы, которые содержат только списки хеш-сумм, убедительная просьба с жалобами обращаться напрямую к пользователю. Файлы для обмена на трекере предоставлены пользователями сайта, и администрация не несёт ответственности за их содержание. Просьба не заливать файлы, защищенные авторскими правами, а также файлы нелегального содержания!

    [Профиль] [ЛС]
    Показать сообщения:    
    Ответить на тему

    Текущее время: Сегодня, в 16:37

    Часовой пояс: GMT + 2



    Вы не можете начинать темы
    Вы не можете отвечать на сообщения
    Вы не можете редактировать свои сообщения
    Вы не можете удалять свои сообщения
    Вы не можете голосовать в опросах
    Вы не можете прикреплять файлы к сообщениям
    Вы не можете скачивать файлы