BitTorrentTracker PerecTracker.org
BitTorrentTracker PerecTracker.org
    
Регистрация  ·  Вход
 
 · 
Забыли пароль?

  • День памяти / Memorial Day (Сэмюэл Фишер / Samuel Fischer) [2011, США, боевик, драма, военный, история, HDRip] MVO

    Ответить на тему
     
    Автор Сообщение

    Columb

    Создавать темы 21-Сен-2013 19:51

           

    [Цитировать]

    День памяти / Memorial Day
    «Two generations. Two wars. One story.»
    Страна: США
    Жанр: боевик, драма, военный, история
    Год выпуска: 2011
    Продолжительность: 01:47:58
    Перевод: Профессиональный (многоголосый, закадровый) студия Jaskier по заказу Creative Media
    Cубтитры: нет
    Оригинальная аудиодорожка: нет-Режиссер: Сэмюэл Фишер / Samuel Fischer
    В ролях: Джонатан Беннетт, Джеймс Кромуэлл, Джон Кромуэлл, Джексон Бонд, Мэри Кэй Фортье-Спэлдинг, Эмили Фраденбург, Чарльз Хаббелл, Корби Келли, Крис ЛеФивер, Люк Шуцле-Описание: Во время игры в прятки маленький Кайл нашел сундук своего дедушки Бада, в котором хранились вещи, оставшиеся в память о войне. Бабушка посоветовала не показывать деду находку, потому что лежащие в сундуке вещи только разбередят старые раны и огорчат старика. Но, несмотря на ее запреты, Кайл все же решил показать сундук владельцу. Поначалу дедушка Бад не хотел открывать ящик, но внуку удалось уговорить его на небольшое одолжение в честь Дня поминовения: он выберет любые три предмета из шкатулки, а Бад расскажет три истории о войне.-Доп. информация:

    -Качество видео: HDRip
    Формат видео: AVI
    Видео: XviD, 720x400 (16:9), 23,976 fps, ~1748 kbps avg, 0.25 bit/pixel
    Аудио: 48 kHz, AC3 Dolby Digital, 2/0 (L,R) ch, ~192 kbps

    MediaInfo

    Общее
    Полное имя : E:\День памяти_2011.avi
    Формат : AVI
    Формат/Информация : Audio Video Interleave
    Размер файла : 1,47 Гбайт
    Продолжительность : 1 ч. 47 м.
    Общий поток : 1949 Кбит/сек
    Программа кодирования : VirtualDubMod 1.5.10.2 (build 2540/release)
    Библиотека кодирования : VirtualDubMod build 2540/release
    Видео
    Идентификатор : 0
    Формат : MPEG-4 Visual
    Профиль формата : Advanced Simple@L5
    Параметр BVOP формата : 1
    Параметр QPel формата : Нет
    Параметр GMC формата : Без точки перехода
    Параметр матрицы формата : Default (MPEG)
    Идентификатор кодека : XVID
    Идентификатор кодека/Подсказка : XviD
    Продолжительность : 1 ч. 47 м.
    Битрейт : 1748 Кбит/сек
    Ширина : 720 пикселей
    Высота : 400 пикселей
    Соотношение сторон : 16:9
    Частота кадров : 23,976 кадра/сек
    Цветовое пространство : YUV
    Субдискретизация насыщенности : 4:2:0
    Битовая глубина : 8 бит
    Тип развёртки : Прогрессивная
    Метод сжатия : С потерями
    Бит/(Пиксели*Кадры) : 0.253
    Размер потока : 1,32 Гбайт (90%)
    Библиотека кодирования : XviD 64
    Аудио
    Идентификатор : 1
    Формат : AC-3
    Формат/Информация : Audio Coding 3
    Расширение режима : CM (complete main)
    Параметр Endianness формата : Big
    Идентификатор кодека : 2000
    Продолжительность : 1 ч. 47 м.
    Вид битрейта : Постоянный
    Битрейт : 192 Кбит/сек
    Каналы : 2 канала
    Расположение каналов : Front: L R
    Частота : 48,0 КГц
    Битовая глубина : 16 бит
    Метод сжатия : С потерями
    Размер потока : 148 Мбайт (10%)
    Выравнивание : Разделение по промежуткам
    Продолжительность промежутка : 42 мс. (1,00 видеокадр)
    Время предзагрузки промежутка : 500 мс.

    Скриншоты

    Скачать .torrent

    Скачать торрент-файл бесплатно и на максимальной скорости!

    Как скачивать? · Что такое торрент? · Рейтинг и ограничения

    !ВНИМАНИЕ!
    Сайт не распространяет и не хранит электронные версии произведений, а занимается лишь лишь предоставлением доступа к создаваемому пользователями каталогу ссылок на торрент-файлы, которые содержат только списки хеш-сумм, убедительная просьба с жалобами обращаться напрямую к пользователю. Файлы для обмена на трекере предоставлены пользователями сайта, и администрация не несёт ответственности за их содержание. Просьба не заливать файлы, защищенные авторскими правами, а также файлы нелегального содержания!

    [Профиль] [ЛС]
    Показать сообщения:    
    Ответить на тему

    Текущее время: Сегодня, в 08:09

    Часовой пояс: GMT + 2



    Вы не можете начинать темы
    Вы не можете отвечать на сообщения
    Вы не можете редактировать свои сообщения
    Вы не можете удалять свои сообщения
    Вы не можете голосовать в опросах
    Вы не можете прикреплять файлы к сообщениям
    Вы не можете скачивать файлы