BitTorrentTracker PerecTracker.org
BitTorrentTracker PerecTracker.org
    
Регистрация  ·  Вход
 
 · 
Забыли пароль?

  • Dennis Locorriere - The Unique Voice Of Dr. Hook - HITS And HISTORY TOUR LIVE [2007 г., Rock, DVD9]

    Ответить на тему
     
    Автор Сообщение

    Columb

    Создавать темы 14-Сен-2013 18:45

           

    [Цитировать]

    Dennis Locorriere - The Unique Voice Of Dr. Hook - HITS And HISTORY TOUR LIVE
    Страна: UK
    Жанр: Rock
    Продолжительность: 02:02:22+00:29:11
    Год выпуска: 2007 г.
    Лейбл: Classic Studio T
    Описание:
    Этот диск представляет вам один концерт из Британского тура Dennis Loccoriere " Hits & History Tour". Сольное выступление превосходного голоса Dr.Hook вместе с его группой возрождает сокрушительные хиты прошлого.
    " Hits & History Tour" был всего лишь позднейшим воплощением цветущей сольной карьеры с релизами записей и последующими турами по Америке, Австралии и Европе.
    "DVD, который вы только что купили, украли или одолжили является одноразовой записью " Hits & History Tour" 2007 года. Под этим я имею в виду, что мы не записывали весь тур. Или половину всех шоу. Или несколько... или даже пару. Мы записали одно шоу. Мы не складывали наиболее блистательные моменты из лучших концертов. Мы записали одну ночь. Под конец тура. Это всё."
    Треклист:
    01. Walk Right In
    02. Sharing The Night Together
    03. I Don't Want To Be Alone Tonight
    04. Better Love Next Time
    05. Baby Makes Her Blue Jeans Talk
    06. The Millionaire
    07. More Like The Movies
    08. If Not You
    09. Sexy Eyes
    10. You Make My Pants Want To Get Up An...
    11. The Ballad Of Lucy Jordan
    12. Only Sixteen
    13. A Couple More Years
    14. Freakin' At The Freaker's Ball
    15. Sleeping Late
    16. When You're In Love With A Beautifu...
    17. A Little Bit More
    18. Hearts (Like Yours and Mine)
    19. The Cover Of The Rolling Stone
    20. Sylvia's Mother
    21. Queen of the Silver Dollar
    22. Years From Now
    Backstage Points & Rusty Hooks Tracklist:
    01. The Jungle to the Zoo
    02. Gave Her Comfort
    03. Judy
    Разбивка на главы по трекам: есть
    Качество : DVD9
    Формат: DVD video
    Видео кодек: MPEG2
    Аудио кодек: AC3
    Видео: NTSC 16:9 (720х480); MPEG Video; 9800kbps VBR; 29,970 fps
    Аудио1: AC-3; 256 kbps; 48 kHz; 2 ch
    Аудио2: AC-3; 448 kbps; 48 kHz; 6 ch
    Аудио3: DTS; 755 kbps; 48 kHz; 6 ch

    DVDInfo

    Title: Local disc D
    Size: 7.89 Gb ( 8 272 318 KBytes ) - DVD-9
    Enabled regions: 1, 2, 3, 4, 5, 6, 7, 8
    VTS_01 :
    Play Length: 02:02:21
    Video: NTSC 16:9 (720x480) VBR, Auto Pan&Scan, Auto Letterboxed
    Audio:
    English (Dolby AC3, 2 ch)
    English (Dolby AC3, 6 ch)
    English (DTS, 6 ch)
    VTS_02 :
    Play Length: 00:07:01
    Video: NTSC 16:9 (720x480) VBR, Auto Pan&Scan
    Audio:
    English (Dolby AC3, 2 ch)
    VTS_03 :
    Play Length: 00:29:21
    Video: NTSC 16:9 (720x480) VBR, Auto Pan&Scan
    Audio:
    English (Dolby AC3, 2 ch)
    English (Dolby AC3, 6 ch)
    English (DTS, 6 ch)
    VTS_04 :
    Play Length: 00:00:37
    Video: NTSC 16:9 (720x480) VBR, Auto Pan&Scan
    Audio:
    English (Dolby AC3, 2 ch)
    MediaInfo:
    Общее
    Полное имя : D:\Uploads\Video\Rock\Dennis Locorriere\D.LOC\VIDEO_TS\VTS_01_1.VOB
    Формат : MPEG-PS
    Размер файла : 1024 Мбайт
    Продолжительность : 20 м.
    Режим общего битрейта : Переменный
    Общий поток : 7062 Кбит/сек
    Видео
    Идентификатор : 224 (0xE0)
    Формат : MPEG Video
    Версия формата : Version 2
    Профиль формата : Main@Main
    Параметр BVOP формата : Да
    Параметр матрицы формата : Выборочная
    Параметр GOP формата : M=3, N=15
    Продолжительность : 20 м.
    Вид битрейта : Переменный
    Битрейт : 5463 Кбит/сек
    Максимальный битрейт : 9800 Кбит/сек
    Ширина : 720 пикселей
    Высота : 480 пикселей
    Соотношение сторон : 16:9
    Частота кадров : 29,970 кадров/сек
    Стандарт вещания : NTSC
    Цветовое пространство : YUV
    Субдискретизация насыщенности : 4:2:0
    Битовая глубина : 8 бит
    Тип развёртки : Чересстрочная
    Порядок развёртки : Нижнее поле первое
    Метод сжатия : С потерями
    Бит/(Пиксели*Кадры) : 0.527
    TimeCode_FirstFrame : 01:00:00:00
    TimeCode_Source : Group of pictures header
    Размер потока : 792 Мбайт (77%)
    Аудио #1
    Идентификатор : 189 (0xBD)-128 (0x80)
    Формат : AC-3
    Формат/Информация : Audio Coding 3
    Расширение режима : CM (complete main)
    Параметр Endianness формата : Big
    Режим смешивания : DVD-Video
    Продолжительность : 20 м.
    Вид битрейта : Постоянный
    Битрейт : 256 Кбит/сек
    Каналы : 2 канала
    Расположение каналов : Front: L R
    Частота : 48,0 КГц
    Битовая глубина : 16 бит
    Метод сжатия : С потерями
    Размер потока : 37,1 Мбайт (4%)
    Аудио #2
    Идентификатор : 189 (0xBD)-129 (0x81)
    Формат : AC-3
    Формат/Информация : Audio Coding 3
    Расширение режима : CM (complete main)
    Параметр Endianness формата : Big
    Режим смешивания : DVD-Video
    Продолжительность : 20 м.
    Вид битрейта : Постоянный
    Битрейт : 448 Кбит/сек
    Каналы : 6 каналов
    Расположение каналов : Front: L C R, Side: L R, LFE
    Частота : 48,0 КГц
    Битовая глубина : 16 бит
    Метод сжатия : С потерями
    Размер потока : 64,9 Мбайт (6%)
    Аудио #3
    Идентификатор : 189 (0xBD)-138 (0x8A)
    Формат : DTS
    Формат/Информация : Digital Theater Systems
    Режим : 16
    Параметр Endianness формата : Big
    Режим смешивания : DVD-Video
    Продолжительность : 20 м.
    Вид битрейта : Постоянный
    Битрейт : 755 Кбит/сек
    Каналы : 6 каналов
    Расположение каналов : Front: L C R, Side: L R, LFE
    Частота : 48,0 КГц
    Битовая глубина : 16 бит
    Метод сжатия : С потерями
    Размер потока : 109 Мбайт (11%)

    Скриншоты меню

    Скриншоты

    Скачать .torrent

    Скачать торрент-файл бесплатно и на максимальной скорости!

    Как скачивать? · Что такое торрент? · Рейтинг и ограничения

    !ВНИМАНИЕ!
    Сайт не распространяет и не хранит электронные версии произведений, а занимается лишь лишь предоставлением доступа к создаваемому пользователями каталогу ссылок на торрент-файлы, которые содержат только списки хеш-сумм, убедительная просьба с жалобами обращаться напрямую к пользователю. Файлы для обмена на трекере предоставлены пользователями сайта, и администрация не несёт ответственности за их содержание. Просьба не заливать файлы, защищенные авторскими правами, а также файлы нелегального содержания!

    [Профиль] [ЛС]
    Показать сообщения:    
    Ответить на тему

    Текущее время: Сегодня, в 06:04

    Часовой пояс: GMT + 2



    Вы не можете начинать темы
    Вы не можете отвечать на сообщения
    Вы не можете редактировать свои сообщения
    Вы не можете удалять свои сообщения
    Вы не можете голосовать в опросах
    Вы не можете прикреплять файлы к сообщениям
    Вы не можете скачивать файлы