BitTorrentTracker PerecTracker.org
BitTorrentTracker PerecTracker.org
    
Регистрация  ·  Вход
 
 · 
Забыли пароль?

  • Горное озеро / Озерная гладь / Вершина озера / Top of the Lake / Сезон: 1 / Серии: 1-7 из 7 (Джейн Кэмпион, Гарт Дэвис) [2013, Драма, WEB-DLRip] MVO (Agatha Studdio) + Original

    Ответить на тему
     
    Автор Сообщение

    Columb

    Создавать темы 14-Сен-2013 10:48

           

    [Цитировать]

    Горное озеро / Озерная гладь / Вершина озера / Top of the Lake
    Год выпуска: 2013
    Страна: Австралия, Новая Зеландия, Великобритания
    Жанр: Драма
    Продолжительность: ~ 00:49:00
    Перевод: Профессиональный (многоголосый закадровый) Agatha Studdio
    Режиссер: Джейн Кэмпион, Гарт Дэвис
    В ролях: Элизабет Мосс, Дэвид Уэнэм, Питер Муллан, Холли Хантер, Томас М. Райт, Сара Валентайн, Жаклин Джо, Гэвин Рутерфорд, Мирра Фолкс, Коэн Холлоуэй
    Описание: Двенадцатилетняя девочка по имени Туи стоит по грудь в ледяной воде озера в дебрях Новой Зеландии, очевидно подумывая о самоубийстве. Позже выясняется, что она на пятом месяце беременности. Детектив Робин временно откомандирована в ее родной город, так как она является специалистом в расследовании преступлений, связанных с жестоким обращением с детьми. Но Робин не успевает встретиться с Туи, девочка бесследно исчезает…
    Доп. информация:
    Исходник: WEB-DL (720p) HDClub
    Озвучивание: MVO Agatha Studdio (Владимир Курдов, Александр Дасевич, Татьяна Манетина, Анастасия Флигина)
    Монтаж и работа со звуком: Сергей Мартынов
    Рип и работа со звуком:
    P.S. В первой серии звук: AC3, 2 ch, 192 Кбит/с
    Сэмпл: http://multi-up.com/855228
    Качество: WEB-DLRip
    Формат: AVI
    Видео кодек: XviD
    Аудио кодек: AC3
    Видео: 720x400 (16:9), 25.000 fps, ~ 2052 kbps, ~ 0.286 bit/pixel
    Аудио Rus: 48 kHz, 6 ch, 384 kbps
    Аудио Eng: 48 kHz, 6 ch, 384 kbps

    MediaInfo

    Общее
    Полное имя : D:\Top.of.the.Lake.S01.WEB-DLRip.Rus.Eng_AgathaStuddio\Top.of.the.Lake.S01E02.WEB-DLRip.Rus.Eng.AgathaStuddio.avi
    Формат : AVI
    Формат/Информация : Audio Video Interleave
    Размер файла : 985 Мбайт
    Продолжительность : 48 м.
    Общий поток : 2863 Кбит/сек
    Программа кодирования : VirtualDubModRus 1.5.10.2 (build 2542/release)
    Библиотека кодирования : VirtualDubMod build 2542/release
    Видео
    Идентификатор : 0
    Формат : MPEG-4 Visual
    Профиль формата : Advanced Simple@L5
    Параметр BVOP формата : 2
    Параметр QPel формата : Нет
    Параметр GMC формата : Без точки перехода
    Параметр матрицы формата : Default (MPEG)
    Идентификатор кодека : XVID
    Идентификатор кодека/Подсказка : XviD
    Продолжительность : 48 м.
    Битрейт : 2081 Кбит/сек
    Ширина : 720 пикс.
    Высота : 400 пикс.
    Соотношение сторон : 16:9
    Частота кадров : 25,000 кадр/сек
    Цветовое пространство : YUV
    Подвыборка цветности : 4:2:0
    Битовая глубина : 8 бит
    Тип развёртки : Прогрессивная
    Метод сжатия : С потерями
    Бит/(Пиксели*Кадры) : 0.289
    Размер потока : 715 Мбайт (73%)
    Библиотека кодирования : XviD 65
    Аудио #1
    Идентификатор : 1
    Формат : AC-3
    Формат/Информация : Audio Coding 3
    Расширение режима : CM (complete main)
    Идентификатор кодека : 2000
    Продолжительность : 48 м.
    Вид битрейта : Постоянный
    Битрейт : 384 Кбит/сек
    Каналы : 6 каналов
    Расположение каналов : Front: L C R, Side: L R, LFE
    Частота : 48,0 КГц
    Битовая глубина : 16 бит
    Метод сжатия : С потерями
    Размер потока : 132 Мбайт (13%)
    Выравнивание : Разделение по промежуткам
    Продолжительность промежутка : 40 мс. (1,00 видеокадр)
    Время предзагрузки промежутка : 500 ms
    Аудио #2
    Идентификатор : 2
    Формат : AC-3
    Формат/Информация : Audio Coding 3
    Расширение режима : CM (complete main)
    Идентификатор кодека : 2000
    Продолжительность : 48 м.
    Вид битрейта : Постоянный
    Битрейт : 384 Кбит/сек
    Каналы : 6 каналов
    Расположение каналов : Front: L C R, Side: L R, LFE
    Частота : 48,0 КГц
    Битовая глубина : 16 бит
    Метод сжатия : С потерями
    Размер потока : 132 Мбайт (13%)
    Выравнивание : Разделение по промежуткам
    Продолжительность промежутка : 40 мс. (1,00 видеокадр)
    Время предзагрузки промежутка : 500 ms

    Скриншоты

    Скачать .torrent

    Скачать торрент-файл бесплатно и на максимальной скорости!

    Как скачивать? · Что такое торрент? · Рейтинг и ограничения

    !ВНИМАНИЕ!
    Сайт не распространяет и не хранит электронные версии произведений, а занимается лишь лишь предоставлением доступа к создаваемому пользователями каталогу ссылок на торрент-файлы, которые содержат только списки хеш-сумм, убедительная просьба с жалобами обращаться напрямую к пользователю. Файлы для обмена на трекере предоставлены пользователями сайта, и администрация не несёт ответственности за их содержание. Просьба не заливать файлы, защищенные авторскими правами, а также файлы нелегального содержания!

    [Профиль] [ЛС]
    Показать сообщения:    
    Ответить на тему

    Текущее время: Сегодня, в 06:35

    Часовой пояс: GMT + 2



    Вы не можете начинать темы
    Вы не можете отвечать на сообщения
    Вы не можете редактировать свои сообщения
    Вы не можете удалять свои сообщения
    Вы не можете голосовать в опросах
    Вы не можете прикреплять файлы к сообщениям
    Вы не можете скачивать файлы