BitTorrentTracker PerecTracker.org
BitTorrentTracker PerecTracker.org
    
Регистрация  ·  Вход
 
 · 
Забыли пароль?

  • Горное озеро / Top Of The Lake / Сезон: 1 / Серии: 1-7 из 7 (Jane Campion) [2013, драма, WEB-DLRip] MVO (Agatha Studdio) + Original

    Ответить на тему
     
    Автор Сообщение

    Columb

    Создавать темы 14-Сен-2013 10:00

           

    [Цитировать]

    Горное озеро / Top Of The Lake
    Год выпуска: 2013
    Страна: Австралия, Великобритания, США
    Жанр: драма
    Продолжительность: 00:50:00
    Перевод:
    Профессиональный (многоголосый закадровый) Agatha Studdio
    Русские субтитры: нет
    Режиссёр: Jane Campion
    В ролях: Elisabeth Moss, David Wenham, Peter Mullan , Thomas M. Wright, Holly Hunter...
    Описание: О поисках счастья в райских ландшафтах Новой Зеландии, где трудно заработать честным трудом. Двенадцатилетняя девочка найдена стоящей по грудь в ледяных озёрных водах. Она на пятом месяце беременности и не называет имя отца ребёнка. Дело ведёт случайно оказавшая в городке детектив по изнасилованиям Робин Гриффин (неоднократно номинированная на Эмми - Элизабет Мосс, звезда сериала "Безумцы"). В ходе расследования она столкнётся с отцом пропавшей - наркобароном Мэттом Митчемом (Питер Маллан - "На игле," "Боевой конь") и наставницей местного женского приюта ДжиДжей (обладательница Оскара за лучшую женскую роль - Холли Хантер, "Пианино"). Дэвид Уэнэм (Фарамир во "Властелине колец", "Австралия") сыграл местного детектива Эл Паркера. Режиссёр и сценарист сериала оскароносная Джейн Кэмпион ("Пианино", "Портрет Леди"). Продюсерская группа – Иен Кэннинг и Эмиль Шерман отмечены Оскаром за фильм «Король говорит!».
    Доп. информация: 18+
    Над релизом работали:

    Перевод: Антон Кедров. Редактура: Agatha. Постер: skofield
    Роли озвучивали: Владимир Курдов, Александр Дасевич, Татьяна Манетина и Анастасия Флигина.
    Работа со звуком: Сергей Мартынов (1), Михаил Шорыгин (2-4,7), Алексей Фокин (5), Илья Ростовский (6).
    IСэмпл (пример озвучки)
    Качество: WEB-DLRip
    Формат: AVI
    Видео кодек: XviD
    Аудио кодек: MP3
    Видео: 720x400 (16:9), 25.000 fps, MPEG4 Visual 1 466 Kbps, 0.204 bit/pixel
    Аудио 1: RUS - 192 Кб/сек 48 kHz, MPEG Layer 3, 2 ch
    Аудио 2: ENG - 192 Кб/сек 48 kHz, MPEG Layer 3, 2 ch
    Субтитры: отсутствуют

    MediaInfo

    General
    Complete name : E:\Top.of.the.Lake.s01_Agatha.Studdio\Top.of.the.Lake.s01e01_Agatha.Studdio.avi
    Format : AVI
    Format/Info : Audio Video Interleave
    File size : 661 MiB
    Duration : 49mn 32s
    Overall bit rate : 1 864 Kbps
    Writing application : VirtualDubModRus 1.5.10.2 (build 2542/release)
    Writing library : VirtualDubMod build 2542/release
    Video
    ID : 0
    Format : MPEG-4 Visual
    Format profile : Advanced Simple@L5
    Format settings, BVOP : 2
    Format settings, QPel : No
    Format settings, GMC : No warppoints
    Format settings, Matrix : Default (H.263)
    Codec ID : XVID
    Codec ID/Hint : XviD
    Duration : 49mn 32s
    Bit rate : 1 466 Kbps
    Width : 720 pixels
    Height : 400 pixels
    Display aspect ratio : 16:9
    Frame rate : 25.000 fps
    Color space : YUV
    Chroma subsampling : 4:2:0
    Bit depth : 8 bits
    Scan type : Progressive
    Compression mode : Lossy
    Bits/(Pixel*Frame) : 0.204
    Stream size : 519 MiB (79%)
    Writing library : XviD 1.2.1 (UTC 2008-12-04)
    Audio #1
    ID : 1
    Format : MPEG Audio
    Format version : Version 1
    Format profile : Layer 3
    Mode : Joint stereo
    Codec ID : 55
    Codec ID/Hint : MP3
    Duration : 49mn 32s
    Bit rate mode : Constant
    Bit rate : 192 Kbps
    Channel(s) : 2 channels
    Sampling rate : 48.0 KHz
    Compression mode : Lossy
    Stream size : 68.0 MiB (10%)
    Alignment : Aligned on interleaves
    Interleave, duration : 40 ms (1.00 video frame)
    Interleave, preload duration : 504 ms
    Audio #2
    ID : 2
    Format : MPEG Audio
    Format version : Version 1
    Format profile : Layer 3
    Mode : Joint stereo
    Codec ID : 55
    Codec ID/Hint : MP3
    Duration : 49mn 32s
    Bit rate mode : Constant
    Bit rate : 192 Kbps
    Channel(s) : 2 channels
    Sampling rate : 48.0 KHz
    Compression mode : Lossy
    Stream size : 68.0 MiB (10%)
    Alignment : Aligned on interleaves
    Interleave, duration : 40 ms (1.00 video frame)
    Interleave, preload duration : 504 ms

    Скриншоты

    Скачать .torrent

    Скачать торрент-файл бесплатно и на максимальной скорости!

    Как скачивать? · Что такое торрент? · Рейтинг и ограничения

    !ВНИМАНИЕ!
    Сайт не распространяет и не хранит электронные версии произведений, а занимается лишь лишь предоставлением доступа к создаваемому пользователями каталогу ссылок на торрент-файлы, которые содержат только списки хеш-сумм, убедительная просьба с жалобами обращаться напрямую к пользователю. Файлы для обмена на трекере предоставлены пользователями сайта, и администрация не несёт ответственности за их содержание. Просьба не заливать файлы, защищенные авторскими правами, а также файлы нелегального содержания!

    [Профиль] [ЛС]
    Показать сообщения:    
    Ответить на тему

    Текущее время: Сегодня, в 19:59

    Часовой пояс: GMT + 2



    Вы не можете начинать темы
    Вы не можете отвечать на сообщения
    Вы не можете редактировать свои сообщения
    Вы не можете удалять свои сообщения
    Вы не можете голосовать в опросах
    Вы не можете прикреплять файлы к сообщениям
    Вы не можете скачивать файлы