BitTorrentTracker PerecTracker.org
BitTorrentTracker PerecTracker.org
    
Регистрация  ·  Вход
 
 · 
Забыли пароль?

  • Австралия. Путеводитель путешественника во времени (4 серии) / Australia: The Time Traveller's Guide (Richard Smith) [2012, Документальный, HDTV 1080i]

    Ответить на тему
     
    Автор Сообщение

    Columb

    Создавать темы 08-Сен-2013 16:23

           

    [Цитировать]

    Австралия. Путеводитель путешественника во времени / Australia: The Time Traveller's Guide
    Год выпуска: 2012
    Страна: Австралия
    Жанр: Документальный
    Продолжительность: 4x ~00:52:00
    Перевод: Профессиональный (многоголосый закадровый) ТПО Редмедио
    Режиссер: Richard Smith
    Описание: Авторы фильма покажут, как происходило формирование Австралии в том виде, в каком мы знаем этот континент. Путешествие начнется с огненного рождения Земли, случившееся четыре с половиной миллиарда лет назад. Мы увидим, как условия на планете станут из гибельных благоприятными. На наших глазах в прибрежных водах Австралии появится первая жизнь.
    Доп. информация:
    1 Серия. На заре времен / The Early Years
    Наше путешествие начинается с огненного рождения Земли, случившееся четыре с половиной миллиарда лет назад. Затем мы увидим, как условия на планете станут из гибельных благоприятными. На наших глазах в прибрежных водах Австралии появится первая жизнь. Но с точки зрения возраста континентов Австралия и мир вокруг нее еще совсем юные. Континент останется безжизненным свыше четырех миллиардов лет...
    2 Серия. Первые шаги / First Steps
    Более 400 миллионов лет назад Австралия все еще входила в состав суперматерика Гондвана, поверхность суши - все еще чистый холст. Но в океанах жизнь била ключом - началась новая волна эволюционных экспериментов, которая, в конечном итоге, закончилась выходом на берег первых животных. Началась пора колонизации суши ...
    3 Серия. Бурные годы / Wild Years
    250 миллионов лет назад завершился период самого масштабного массового вымирания на Земле. Он унес с собой до 95 процентов биологических видов планеты. Как на суше, так и в мировом океане жизнь оказалась на грани исчезновения. Однако на руинах этого опустошенного мира зародился новый ...
    4 Серия. Большой остров / Big Island
    Знакомый облик Австралии начинает вырисовываться только на подступах к современности. Рассказ о том, как остров-континент отделился от остального мира, и как жизнь на борту этого дрейфующего ковчега приспособилась к переменам ...
    Тип релиза: HDTV 1080i
    Контейнер: M2TS
    Видео: H264; 1920x1080 (16:9); 25.000 fps; ~10.6 Mbps
    Аудио: AC-3; 48000 Hz; 192 kbps; 2 channels

    MediaInfo

    F:\06__HD Life\Австралия. Путеводитель путешественника во времени_HD Life_1080i_by kuzmichm2196\Австралия. Путеводитель путешественника во времени, 1 с. Ранние годы.m2ts
    General #0
    ID : 0 (0x0)
    Complete name : F:\06__HD Life\Австралия. Путеводитель путешественника во времени_HD Life_1080i_by kuzmichm2196\Австралия. Путеводитель путешественника во времени, 1 с. Ранние годы.m2ts
    Format : BDAV
    Format/Info : Blu-ray Video
    File size : 4.07 GiB
    Duration : 51mn 59s
    Overall bit rate mode : Variable
    Overall bit rate : 11.2 Mbps
    Maximum Overall bit rate : 24.0 Mbps
    Video #4113
    ID : 4113 (0x1011)
    Menu ID : 1 (0x1)
    Format : AVC
    Format/Info : Advanced Video Codec
    Format profile : High@L4.0
    Format settings, CABAC : No
    Format settings, ReFrames : 2 frames
    Format settings, GOP : M=3, N=15
    Codec ID : 27
    Duration : 51mn 58s
    Bit rate mode : Variable
    Bit rate : 10.6 Mbps
    Maximum bit rate : 19.9 Mbps
    Width : 1 920 pixels
    Height : 1 080 pixels
    Display aspect ratio : 16:9
    Frame rate : 25.000 fps
    Standard : PAL
    Color space : YUV
    Chroma subsampling : 4:2:0
    Bit depth : 8 bits
    Scan type : MBAFF
    Bits/(Pixel*Frame) : 0.204
    Stream size : 3.83 GiB (94%)
    Color primaries : BT.709-5, BT.1361, IEC 61966-2-4, SMPTE RP177
    Transfer characteristics : BT.709-5, BT.1361
    Matrix coefficients : BT.709-5, BT.1361, IEC 61966-2-4 709, SMPTE RP177
    Audio #4352
    ID : 4352 (0x1100)
    Menu ID : 1 (0x1)
    Format : AC-3
    Format/Info : Audio Coding 3
    Mode extension : CM (complete main)
    Codec ID : 129
    Duration : 51mn 58s
    Bit rate mode : Constant
    Bit rate : 192 Kbps
    Channel(s) : 2 channels
    Channel positions : Front: L R
    Sampling rate : 48.0 KHz
    Bit depth : 16 bits
    Compression mode : Lossy
    Stream size : 71.4 MiB (2%)

    Скриншоты

    Скачать .torrent

    Скачать торрент-файл бесплатно и на максимальной скорости!

    Как скачивать? · Что такое торрент? · Рейтинг и ограничения

    !ВНИМАНИЕ!
    Сайт не распространяет и не хранит электронные версии произведений, а занимается лишь лишь предоставлением доступа к создаваемому пользователями каталогу ссылок на торрент-файлы, которые содержат только списки хеш-сумм, убедительная просьба с жалобами обращаться напрямую к пользователю. Файлы для обмена на трекере предоставлены пользователями сайта, и администрация не несёт ответственности за их содержание. Просьба не заливать файлы, защищенные авторскими правами, а также файлы нелегального содержания!

    [Профиль] [ЛС]
    Показать сообщения:    
    Ответить на тему

    Текущее время: Сегодня, в 14:46

    Часовой пояс: GMT + 2



    Вы не можете начинать темы
    Вы не можете отвечать на сообщения
    Вы не можете редактировать свои сообщения
    Вы не можете удалять свои сообщения
    Вы не можете голосовать в опросах
    Вы не можете прикреплять файлы к сообщениям
    Вы не можете скачивать файлы