BitTorrentTracker PerecTracker.org
BitTorrentTracker PerecTracker.org
    
Регистрация  ·  Вход
 
 · 
Забыли пароль?

  • Гигантский механический человек / The Giant Mechanical Man (Ли Кирк / Lee Kirk) [2012, США, драма, мелодрама, комедия, HDRip] VO (MrRose)

    Ответить на тему
     
    Автор Сообщение

    Columb

    Создавать темы 07-Сен-2013 20:41

           

    [Цитировать]

    Гигантский механический человек / The Giant Mechanical Man-Год выхода: 2012
    Жанр: драма, мелодрама, комедия
    Страна: США / Votiv Films, ITS Capital, Taggart Productions
    Продолжительность: 01:29:10
    Перевод: Одноголосый, закадровый |MrRose| по переводу Lenok92
    Субтитры: нет-Режиссер: Ли Кирк / Lee Kirk-В ролях: Дженна Фишер, Крис Мессина, Малин Акерман, Рич Соммер, Люси Панч, Тофер Грейс, Боб Оденкирк, Трэвис Шульдт, Валентайн Миле, Шон Ганн-Описание: Это фильм про двух изгоев. Один — недооцененный уличный артист, выступающий в жанре человека-статуи. Вторая — так и не нашедшая себя в жизни девушка, младшая сестра которой навязчиво пытается устроить её личную жизнь. Им нужны деньги и случайным образом они устраиваются на работу в один зоопарк…- -Сэмпл: http://multi-up.com/900950-Качество: HDRip [The.Giant.Mechanical.Man.2012.1080p.BluRay.x264-iNVANDRAREN]
    Формат: AVI
    Видео: 656x352 (1.86:1), 24.000 fps, XviD build 65 ~1028 kbps avg, 0.19 bit/pixel
    Аудио: 48 kHz, MPEG Layer 3, 2 ch, ~128.00 kbps avg
    -

    MediaInfo

    Формат                                   : AVI
    Формат/Информация                        : Audio Video Interleave
    Размер файла                             : 744 Мбайт
    Продолжительность                        : 1 ч. 29 м.
    Общий поток                              : 1166 Кбит/сек
    Программа кодирования                    : VirtualDubMod 1.5.10.3 | www.virtualdub-fr.org || (build 2550/release)
    Библиотека кодирования                   : VirtualDubMod build 2550/release
    Видео
    Идентификатор                            : 0
    Формат                                   : MPEG-4 Visual
    Профиль формата                          : Advanced Simple@L5
    Параметр BVOP формата                    : 2
    Параметр QPel формата                    : Нет
    Параметр GMC формата                     : Без точки перехода
    Параметр матрицы формата                 : Выборочная
    Идентификатор кодека                     : XVID
    Идентификатор кодека/Подсказка           : XviD
    Продолжительность                        : 1 ч. 29 м.
    Битрейт                                  : 1029 Кбит/сек
    Ширина                                   : 656 пикселей
    Высота                                   : 352 пикселя
    Соотношение сторон                       : 1,85:1
    Частота кадров                           : 24,000 кадра/сек
    Цветовое пространство                    : YUV
    Субдискретизация насыщенности            : 4:2:0
    Битовая глубина                          : 8 бит
    Тип развёртки                            : Прогрессивная
    Метод сжатия                             : С потерями
    Бит/(Пиксели*Кадры)                      : 0.186
    Размер потока                            : 656 Мбайт (88%)
    Библиотека кодирования                   : XviD 65
    Аудио
    Идентификатор                            : 1
    Формат                                   : MPEG Audio
    Версия формата                           : Version 1
    Профиль формата                          : Layer 3
    Режим                                    : Joint stereo
    Расширение режима                        : MS Stereo
    Идентификатор кодека                     : 55
    Идентификатор кодека/Подсказка           : MP3
    Продолжительность                        : 1 ч. 29 м.
    Вид битрейта                             : Постоянный
    Битрейт                                  : 128 Кбит/сек
    Каналы                                   : 2 канала
    Частота                                  : 48,0 КГц
    Метод сжатия                             : С потерями
    Размер потока                            : 81,6 Мбайт (11%)
    Выравнивание                             : Соединение по промежуткам
    Продолжительность промежутка             : 42  мс. (1,00 видеокадр)
    Время предзагрузки промежутка            : 504  мс.
    Библиотека кодирования                   : LAME3.99r

    Скриншоты

    Озвучка доступна благодаря будулайроманов. Сборка звука - perevodman.
    Скачать .torrent

    Скачать торрент-файл бесплатно и на максимальной скорости!

    Как скачивать? · Что такое торрент? · Рейтинг и ограничения

    !ВНИМАНИЕ!
    Сайт не распространяет и не хранит электронные версии произведений, а занимается лишь лишь предоставлением доступа к создаваемому пользователями каталогу ссылок на торрент-файлы, которые содержат только списки хеш-сумм, убедительная просьба с жалобами обращаться напрямую к пользователю. Файлы для обмена на трекере предоставлены пользователями сайта, и администрация не несёт ответственности за их содержание. Просьба не заливать файлы, защищенные авторскими правами, а также файлы нелегального содержания!

    [Профиль] [ЛС]
    Показать сообщения:    
    Ответить на тему

    Текущее время: Сегодня, в 06:12

    Часовой пояс: GMT + 2



    Вы не можете начинать темы
    Вы не можете отвечать на сообщения
    Вы не можете редактировать свои сообщения
    Вы не можете удалять свои сообщения
    Вы не можете голосовать в опросах
    Вы не можете прикреплять файлы к сообщениям
    Вы не можете скачивать файлы