BitTorrentTracker PerecTracker.org
BitTorrentTracker PerecTracker.org
    
Регистрация  ·  Вход
 
 · 
Забыли пароль?

  • [ATV3] Иррациональный человек / Irrational Man (Вуди Аллен / Woody Allen ) [2015, США, Драма, детектив, BDRip, HD (1080p)] DUB + Original + sub (eng)

    Ответить на тему
     
    Автор Сообщение

    Flirldrerve

    Создавать темы 15-Янв-2016 17:49

           

    [Цитировать]

    Иррациональный человек / Irrational Man
    -
    6.784 / 10 6.70 / 10
    -Год выпуска: 2015
    Страна: США
    Жанр: Драма, детектив
    Продолжительность: 01:34:50
    Перевод: Дублированный (iTunes)
    Оригинальная аудиодорожка: Есть
    Cубтитры: Английские
    Режиссёр: Вуди Аллен
    Сценарий: Вуди Аллен
    Продюсер: Летти Аронсон, Стивен Тененбаум, Эдвард Уолсон
    Оператор: Дариус Хонджи
    Художник: Карл Спрэг, Сьюзи Бензингер, Дженнифер Энджел
    Монтаж: Алиса Лепселтер
    В ролях: Хоакин Феникс, Эмма Стоун, Джейми Блэкли, Паркер Поузи, Джо Степлтон, Нэнси Кэрролл, Эллисон Галлерани, Бригитт Ланди-Пейн, Кэтлин Семер, Бетси Айдем
    Сборы в США: $4 030 360
    Сборы в России: $715 321
    Мировая премьера: 15 мая 2015
    Премьера (РФ): 13 августа 2015, «Централ Партнершип»
    Описание: Профессор философии Эйб Лукас опустошен: он не видит в своей жизни ни радости, ни смысла.
    На лето Эйб приезжает преподавать в небольшой колледж, где у него завязываются отношения с двумя очень разными женщинами. Рита, его новая коллега, воображает, что именно он вызволит ее из несчастливого брака. А Джилл, его лучшая студентка, становится ему ближайшим другом. Но девушку неодолимо притягивают мятущаяся творческая натура Эйба и его загадочное прошлое, и она все больше отдаляется от своего бойфренда, Роя…
    Все меняет невольно подслушанный Эйбом и Джилл разговор, после которого Эйб, стряхнув с себя равнодушие и отчаяние, решает действовать… Абсолютно иррационально.-Качество исходника: Blu-Ray (BlueBird)
    Качество: BDRip
    Тип: HD (1080p)
    Контейнер: M4V
    Видео: H.264, 1920x800, 2.40:1, 8 000 Kbps, 23.976 (24000/1001) fps
    Аудио 1: Русский/Дублированный (iTunes), AAC / 2.0 / 157 Kbps / 48.0 KHz
    Аудио 2: Английский/Оригинальная дорожка , AAC / 2.0 / 157 Kbps / 48.0 KHz
    Аудио 3: Русский/Дублированный (iTunes), AC-3 / 5.1 / 384 Kbps / 48.0 KHz
    Аудио 4: Английский/Оригинальная дорожка , AC-3 / 5.1 / 640 Kbps / 48.0 KHz
    Субтитры: Английские полные
    -

    iTunes Meta Tags

    Sort Name: Irrational Man
    XID: Apple:vendor_id:2015-840992
    contentID: 1019388303
    Copyright: © 2015 Gravier Productions, Inc. All rights reserved.
    Screenwriters: Вуди Аллен
    Producers: Летти Аронсон, Стивен Тененбаум, Эдвард Уолсон
    Director: Вуди Аллен
    Cast: Хоакин Феникс, Эмма Стоун, Джейми Блэкли, Паркер Поузи, Джо Степлтон, Нэнси Кэрролл, Эллисон Галлерани, Бригитт Ланди-Пейн, Кэтлин Семер, Бетси Айдем, Станислав Тикунов
    Studio: Entertainment One
    Rating: 17
    Long Description: Профессор философии Эйб Лукас опустошен: он не видит в своей жизни ни радости, ни смысла.
    На лето Эйб приезжает преподавать в небольшой колледж, где у него завязываются отношения с двумя очень разными женщинами. Рита, его новая коллега, воображает, что именно он вызволит ее из несчастливого брака. А Джилл, его лучшая студентка, становится ему ближайшим другом. Но девушку неодолимо притягивают мятущаяся творческая натура Эйба и его загадочное прошлое, и она все больше отдаляется от своего бойфренда, Роя...
    Все меняет невольно подслушанный Эйбом и Джилл разговор, после которого Эйб, стряхнув с себя равнодушие и отчаяние, решает действовать... Абсолютно иррационально.
    Description: Профессор философии Эйб Лукас опустошен: он не видит в своей жизни ни радости, ни смысла.
    На лето Эйб приезжает преподавать в небольшой колледж, где у него завязываются отношения с двумя очень разными женщинами.
    Release Date: 2015-05-15T08:00:00Z
    Genre: Drama
    Artist: Woody Allen
    Name: Irrational Man

    MediaInfo

    General
    Complete name : /Users/imac/HandBrake/Irrational Man (1080p HD).m4v
    Format : MPEG-4
    Codec ID : M4V  (M4V /M4A /mp42/isom)
    File size : 6.19 GiB
    Duration : 1h 34mn
    Overall bit rate mode : Variable
    Overall bit rate : 9 345 Kbps
    Movie name : Irrational Man
    Performer : Woody Allen
    Director : Вуди Аллен
    Actor : Хоакин Феникс / Эмма Стоун / Джейми Блэкли / Паркер Поузи / Джо Степлтон / Нэнси Кэрролл / Эллисон Галлерани / Бригитт Ланди-Пейн / Кэтлин Семер / Бетси Айдем / Станислав Тикунов
    Screenplay by : Вуди Аллен
    Producer : Летти Аронсон / Стивен Тененбаум / Эдвард Уолсон
    Production studio : Entertainment One
    Genre : Drama
    ContentType : Short Film
    Description : Профессор философии Эйб Лукас опустошен: он не видит в своей жизни ни радости, ни смысла. / На лето Эйб приезжает преподавать в небольшой колледж, где у него завязываются отношения с двумя очень разными женщинами.
    Recorded date : UTC 2015-05-15 08:00:00
    Encoded date : UTC 2016-01-15 08:51:11
    Tagged date : UTC 2016-01-15 09:38:12
    Copyright : © 2015 Gravier Productions, Inc. All rights reserved.
    Cover : Yes
    Rating : None
    Title/Sort : Irrational Man
    LongDescription : Профессор философии Эйб Лукас опустошен: он не видит в своей жизни ни радости, ни смысла. / На лето Эйб приезжает преподавать в небольшой колледж, где у него завязываются отношения с двумя очень разными женщинами. Рита, его новая коллега, воображает, что именно он вызволит ее из несчастливого брака. А Джилл, его лучшая студентка, становится ему ближайшим другом. Но девушку неодолимо притягивают мятущаяся творческая натура Эйба и его загадочное прошлое, и она все больше отдаляется от своего бойфренда, Роя... / Все меняет невольно подслушанный Эйбом и Джилл разговор, после которого Эйб, стряхнув с себя равнодушие и отчаяние, решает действовать... Абсолютно иррационально.
    AppleStoreCatalogID : 1019388303
    Vendor : Apple:vendor_id:2015-840992
    ContentRating : au-movie|M|350|
    Video #1
    ID : 1
    Format : AVC
    Format/Info : Advanced Video Codec
    Format profile : High@L4
    Format settings, CABAC : Yes
    Format settings, ReFrames : 4 frames
    Codec ID : avc1
    Codec ID/Info : Advanced Video Coding
    Duration : 1h 34mn
    Source duration : 1h 34mn
    Bit rate : 8 000 Kbps
    Width : 1 920 pixels
    Height : 800 pixels
    Display aspect ratio : 2.40:1
    Frame rate mode : Variable
    Frame rate : 23.976 (24000/1001) fps
    Minimum frame rate : 23.974 fps
    Maximum frame rate : 23.981 fps
    Color space : YUV
    Chroma subsampling : 4:2:0
    Bit depth : 8 bits
    Scan type : Progressive
    Bits/(Pixel*Frame) : 0.217
    Stream size : 5.30 GiB (86%)
    Source stream size : 5.30 GiB (86%)
    Title : Main Program
    Writing library : x264 core 142 r2479 dd79a61
    Encoding settings : cabac=1 / ref=4 / deblock=1:-2:-2 / analyse=0x3:0x133 / me=umh / subme=10 / psy=1 / psy_rd=1.00:0.15 / mixed_ref=1 / me_range=32 / chroma_me=1 / trellis=2 / 8x8dct=1 / cqm=0 / deadzone=21,11 / fast_pskip=0 / chroma_qp_offset=-3 / threads=36 / lookahead_threads=6 / sliced_threads=0 / nr=0 / decimate=0 / interlaced=0 / bluray_compat=0 / constrained_intra=0 / bframes=16 / b_pyramid=2 / b_adapt=2 / b_bias=0 / direct=3 / weightb=1 / open_gop=0 / weightp=2 / keyint=240 / keyint_min=24 / scenecut=40 / intra_refresh=0 / rc_lookahead=60 / rc=2pass / mbtree=1 / bitrate=8000 / ratetol=1.0 / qcomp=0.70 / qpmin=0 / qpmax=69 / qpstep=4 / cplxblur=20.0 / qblur=0.5 / vbv_maxrate=25000 / vbv_bufsize=25000 / nal_hrd=none / filler=0 / ip_ratio=1.40 / aq=1:1.00
    Language : English
    Encoded date : UTC 2016-01-15 08:51:11
    Tagged date : UTC 2016-01-15 08:51:28
    Color range : Limited
    Color primaries : BT.709
    Transfer characteristics : BT.709
    Matrix coefficients : BT.709
    Menus : 7,8
    Video #2
    ID : 8
    Format : JPEG
    Codec ID : jpeg
    Duration : 1h 34mn
    Bit rate mode : Variable
    Bit rate : 1 399 bps
    Width : 640 pixels
    Height : 266 pixels
    Display aspect ratio : 2.40:1
    Frame rate mode : Variable
    Frame rate : 0.003 fps
    Minimum frame rate : 0.002 fps
    Maximum frame rate : 0.004 fps
    Color space : YUV
    Chroma subsampling : 4:2:0
    Bit depth : 8 bits
    Compression mode : Lossy
    Bits/(Pixel*Frame) : 2.739
    Stream size : 911 KiB (0%)
    Title : Chapter Images
    Language : English
    Default : No
    Encoded date : UTC 2016-01-15 08:51:35
    Tagged date : UTC 2016-01-15 08:51:36
    Menu For : 1
    Audio #1
    ID : 2
    Format : AAC
    Format/Info : Advanced Audio Codec
    Format profile : LC
    Codec ID : 40
    Duration : 1h 34mn
    Bit rate mode : Variable
    Bit rate : 157 Kbps
    Maximum bit rate : 225 Kbps
    Channel(s) : 2 channels
    Channel positions : Front: L R
    Sampling rate : 48.0 KHz
    Frame rate : 46.875 fps (1024 spf)
    Compression mode : Lossy
    Stream size : 106 MiB (2%)
    Title : Russian Stereo
    Language : Russian
    Default : Yes
    Alternate group : 1
    Encoded date : UTC 2016-01-15 08:51:11
    Tagged date : UTC 2016-01-15 08:51:20
    Fallback From : 4
    Menus : 7
    Audio #2
    ID : 3
    Format : AAC
    Format/Info : Advanced Audio Codec
    Format profile : LC
    Codec ID : 40
    Duration : 1h 34mn
    Bit rate mode : Variable
    Bit rate : 157 Kbps
    Maximum bit rate : 233 Kbps
    Channel(s) : 2 channels
    Channel positions : Front: L R
    Sampling rate : 48.0 KHz
    Frame rate : 46.875 fps (1024 spf)
    Compression mode : Lossy
    Stream size : 107 MiB (2%)
    Title : English Stereo
    Language : English
    Default : No
    Alternate group : 1
    Encoded date : UTC 2016-01-15 08:51:11
    Tagged date : UTC 2016-01-15 08:51:20
    Fallback From : 5
    Audio #3
    ID : 4
    Format : AC-3
    Format/Info : Audio Coding 3
    Mode extension : CM (complete main)
    Format settings, Endianness : Big
    Codec ID : ac-3
    Duration : 1h 34mn
    Bit rate mode : Constant
    Bit rate : 384 Kbps
    Channel(s) : 6 channels
    Channel positions : Front: L C R, Side: L R, LFE
    Sampling rate : 48.0 KHz
    Frame rate : 31.250 fps (1536 spf)
    Bit depth : 16 bits
    Compression mode : Lossy
    Stream size : 260 MiB (4%)
    Title : Russian DD 5.1
    Language : Russian
    Default : Inherited From: 2
    Alternate group : 1
    Encoded date : UTC 2016-01-15 08:51:11
    Tagged date : UTC 2016-01-15 08:51:18
    Fallback To : 2
    Audio #4
    ID : 5
    Format : AC-3
    Format/Info : Audio Coding 3
    Mode extension : CM (complete main)
    Format settings, Endianness : Big
    Codec ID : ac-3
    Duration : 1h 34mn
    Bit rate mode : Constant
    Bit rate : 640 Kbps
    Channel(s) : 6 channels
    Channel positions : Front: L C R, Side: L R, LFE
    Sampling rate : 48.0 KHz
    Frame rate : 31.250 fps (1536 spf)
    Bit depth : 16 bits
    Compression mode : Lossy
    Stream size : 434 MiB (7%)
    Title : English DD 5.1
    Language : English
    Default : No
    Alternate group : 1
    Encoded date : UTC 2016-01-15 08:51:11
    Tagged date : UTC 2016-01-15 08:51:18
    Fallback To : 3
    Text
    ID : 6
    Format : Timed Text
    Muxing mode : sbtl
    Codec ID : tx3g
    Duration : 1h 31mn
    Bit rate mode : Variable
    Bit rate : 107 bps
    Stream size : 71.3 KiB (0%)
    Title : English full
    Language : English
    Default : Yes
    Forced : No
    Alternate group : 2
    Encoded date : UTC 2016-01-15 08:51:11
    Tagged date : UTC 2016-01-15 08:51:11
    Menu #1
    00:00:00.000 : Chapter 1
    00:04:40.197 : Chapter 2
    00:09:23.772 : Chapter 3
    00:13:30.184 : Chapter 4
    00:17:54.782 : Chapter 5
    00:23:17.730 : Chapter 6
    00:30:58.231 : Chapter 7
    00:38:21.299 : Chapter 8
    00:45:41.155 : Chapter 9
    00:54:50.370 : Chapter 10
    01:00:10.273 : Chapter 11
    01:04:35.121 : Chapter 12
    01:09:44.222 : Chapter 13
    01:13:58.559 : Chapter 14
    01:20:16.103 : Chapter 15
    01:26:02.199 : Chapter 16
    Menu #2
    ID : 7
    Codec ID : text
    Duration : 1h 34mn
    Language : English
    Encoded date : UTC 2016-01-15 08:51:28
    Tagged date : UTC 2016-01-15 08:51:28
    Menu For : 2,1
    00:00:00.000 : Chapter 1
    00:04:40.197 : Chapter 2
    00:09:23.772 : Chapter 3
    00:13:30.184 : Chapter 4
    00:17:54.782 : Chapter 5
    00:23:17.730 : Chapter 6
    00:30:58.231 : Chapter 7
    00:38:21.299 : Chapter 8
    00:45:41.155 : Chapter 9
    00:54:50.370 : Chapter 10
    01:00:10.273 : Chapter 11
    01:04:35.121 : Chapter 12
    01:09:44.222 : Chapter 13
    01:13:58.559 : Chapter 14
    01:20:16.103 : Chapter 15
    01:26:02.199 : Chapter 16
    Bit rate mode : VBR

    x264 лог

    x264 [info]: frame I:773   Avg QP:15.65  size:217662
    x264 [info]: frame P:28329 Avg QP:18.83  size: 81296
    x264 [info]: frame B:107314 Avg QP:20.61  size: 29980
    x264 [info]: consecutive B-frames:  1.6%  2.6%  3.8% 27.6% 14.0% 25.8%  9.7% 13.1%  1.0%  0.2%  0.2%  0.6%  0.0%  0.0%  0.0%  0.0%  0.0%
    x264 [info]: mb I  I16..4: 12.7% 65.7% 21.6%
    x264 [info]: mb P  I16..4:  1.0% 10.4%  1.1%  P16..4: 42.6% 23.4% 16.2%  0.9%  0.3%    skip: 4.1%
    x264 [info]: mb B  I16..4:  0.0%  1.2%  0.1%  B16..8: 43.8%  9.9%  2.8%  direct: 7.7%  skip:34.5%  L0:42.1% L1:43.7% BI:14.2%
    x264 [info]: 8x8 transform intra:82.4% inter:49.0%
    x264 [info]: direct mvs  spatial:99.2% temporal:0.8%
    x264 [info]: coded y,uvDC,uvAC intra: 92.4% 85.5% 65.6% inter: 35.0% 23.3% 8.6%
    x264 [info]: i16 v,h,dc,p: 37% 13% 22% 28%
    x264 [info]: i8 v,h,dc,ddl,ddr,vr,hd,vl,hu: 11%  9% 14%  9% 12% 12% 11% 11% 12%
    x264 [info]: i4 v,h,dc,ddl,ddr,vr,hd,vl,hu: 14% 11%  5%  8% 12% 13% 13% 11% 14%
    x264 [info]: i8c dc,h,v,p: 44% 21% 19% 15%
    x264 [info]: Weighted P-Frames: Y:2.6% UV:1.7%
    x264 [info]: ref P L0: 50.6% 11.8% 27.1%  9.9%  0.6%  0.0%
    x264 [info]: ref B L0: 88.0%  9.8%  2.2%
    x264 [info]: ref B L1: 93.8%  6.2%
    x264 [info]: kb/s:7998.42

    Скриншоты

    -

    Релиз подготовлен для просмотра на Apple TV, iPad, iPhone, iPod Touch.
    Для просмотра данного релиза на компьютере с ОС Windows рекомендуется использовать VLC media player
    Скачать .torrent

    Скачать торрент-файл бесплатно и на максимальной скорости!

    Как скачивать? · Что такое торрент? · Рейтинг и ограничения

    !ВНИМАНИЕ!
    Сайт не распространяет и не хранит электронные версии произведений, а занимается лишь лишь предоставлением доступа к создаваемому пользователями каталогу ссылок на торрент-файлы, которые содержат только списки хеш-сумм, убедительная просьба с жалобами обращаться напрямую к пользователю. Файлы для обмена на трекере предоставлены пользователями сайта, и администрация не несёт ответственности за их содержание. Просьба не заливать файлы, защищенные авторскими правами, а также файлы нелегального содержания!


    _________________
    [Профиль] [ЛС]
    Показать сообщения:    
    Ответить на тему

    Текущее время: Сегодня, в 14:00

    Часовой пояс: GMT + 2



    Вы не можете начинать темы
    Вы не можете отвечать на сообщения
    Вы не можете редактировать свои сообщения
    Вы не можете удалять свои сообщения
    Вы не можете голосовать в опросах
    Вы не можете прикреплять файлы к сообщениям
    Вы не можете скачивать файлы