BitTorrentTracker PerecTracker.org
BitTorrentTracker PerecTracker.org
    
Регистрация  ·  Вход
 
 · 
Забыли пароль?

  • Седьмое Небо / Сезон: 1 / Серии: 1-4 из 4 (Вячеслав Криштофович) [2005, мелодрама, детектив, DVDRip]

    Ответить на тему
     
    Автор Сообщение

    rechyn

    Создавать темы 15-Янв-2016 15:21

           

    [Цитировать]

    Седьмое Небо
    Год выпуска: 2005
    Производство: ФильмПро
    Жанр: мелодрама, детектив
    Продолжительность: 03:18:40
    Субтитры: отсутствуют
    Режиссёр: Вячеслав Криштофович
    В ролях: Александр Лазарев, Ольга Сутулова, Анатолий Адоскин, Владимир Стержаков, Юрий Цурило, Людмила Савельева, Лариса Кадочникова, Александр Высоковский
    Описание: Корреспондент газеты «Время, вперед!» Лидия Шевелева становится пешкой в большой игре, получив из анонимного источника компрометирующие материалы на Егора Шубина, главу юридической службы крупного холдинга. По заданию своего начальства она пишет обличительную статью о подлом воре с «внешностью английского лорда». Справедливость торжествует — руководство холдинга отстраняет Шубина от дел и дает ему неделю на то, чтобы попытаться восстановить свое доброе имя…
    Но судьба любит шутить, и она случайно сталкивает Шевелеву и Шубина вновь. При ближайшем знакомстве с Егором Лидия начинает сомневаться в его виновности, и недавние враги начинают собственное расследование, невзирая на опасности и рискуя жизнью.
    Все раздачи сериала
    Сэмпл
    Качество: DVDRip
    Формат: AVI
    Видео кодек: XviD
    Аудио кодек: AC3
    Видео: 688x384 (1.79:1), 25 fps, XviD build 73 ~1376 kbps avg, 0.21 bit/pixel
    Аудио: 48 kHz, AC3 Dolby Digital, 2/0 (L,R) ch, ~192 kbps

    MI

    Общее
    Полное имя : H:\Седьмое.Небо.2006.dvdrip_[2.18]_[teko].avi
    Формат : AVI
    Формат/Информация : Audio Video Interleave
    Профиль формата : OpenDML
    Размер файла : 2,19 Гбайт
    Продолжительность : 3 ч. 18 м.
    Общий поток : 1575 Кбит/сек
    Программа кодирования : VirtualDubMod 1.5.10.3 | www.virtualdub-fr.org || (build 2550/release)
    Библиотека кодирования : VirtualDubMod build 2550/release
    Видео
    Идентификатор : 0
    Формат : MPEG-4 Visual
    Профиль формата : Advanced Simple@L5
    Параметр BVOP формата : 1
    Параметр QPel формата : Нет
    Параметр GMC формата : Без точки перехода
    Параметр матрицы формата : Выборочная
    Идентификатор кодека : XVID
    Идентификатор кодека/Подсказка : XviD
    Продолжительность : 3 ч. 18 м.
    Битрейт : 1371 Кбит/сек
    Ширина : 688 пикселей
    Высота : 384 пикселя
    Соотношение сторон : 16:9
    Частота кадров : 25,000 кадров/сек
    Цветовое пространство : YUV
    Субдискретизация насыщенности : 4:2:0
    Битовая глубина : 8 бит
    Тип развёртки : Прогрессивная
    Метод сжатия : С потерями
    Бит/(Пиксели*Кадры) : 0.208
    Размер потока : 1,90 Гбайт (87%)
    Библиотека кодирования : XviD 73
    Аудио
    Идентификатор : 1
    Формат : AC-3
    Формат/Информация : Audio Coding 3
    Расширение режима : CM (complete main)
    Параметр Endianness формата : Big
    Идентификатор кодека : 2000
    Продолжительность : 3 ч. 18 м.
    Вид битрейта : Постоянный
    Битрейт : 192 Кбит/сек
    Каналы : 2 канала
    Расположение каналов : Front: L R
    Частота : 48,0 КГц
    Битовая глубина : 16 бит
    Метод сжатия : С потерями
    Размер потока : 273 Мбайт (12%)
    Выравнивание : Разделение по промежуткам
    Продолжительность промежутка : 40 мс. (1,00 видеокадр)
    Время предзагрузки промежутка : 500 мс.

    Скриншоты

    --
    Скачать .torrent

    Скачать торрент-файл бесплатно и на максимальной скорости!

    Как скачивать? · Что такое торрент? · Рейтинг и ограничения

    !ВНИМАНИЕ!
    Сайт не распространяет и не хранит электронные версии произведений, а занимается лишь лишь предоставлением доступа к создаваемому пользователями каталогу ссылок на торрент-файлы, которые содержат только списки хеш-сумм, убедительная просьба с жалобами обращаться напрямую к пользователю. Файлы для обмена на трекере предоставлены пользователями сайта, и администрация не несёт ответственности за их содержание. Просьба не заливать файлы, защищенные авторскими правами, а также файлы нелегального содержания!


    _________________
    [Профиль] [ЛС]
    Показать сообщения:    
    Ответить на тему

    Текущее время: Сегодня, в 08:11

    Часовой пояс: GMT + 2



    Вы не можете начинать темы
    Вы не можете отвечать на сообщения
    Вы не можете редактировать свои сообщения
    Вы не можете удалять свои сообщения
    Вы не можете голосовать в опросах
    Вы не можете прикреплять файлы к сообщениям
    Вы не можете скачивать файлы