BitTorrentTracker PerecTracker.org
BitTorrentTracker PerecTracker.org
    
Регистрация  ·  Вход
 
 · 
Забыли пароль?

  • Деревенский роман (Красотка) / Серии: 1-16 из 16 (Виталий Бабенко) [2015, Россия, Мелодрама, HDTV 1080i]

    Ответить на тему
     
    Автор Сообщение

    rechyn

    Создавать темы 15-Янв-2016 15:12

           

    [Цитировать]

    Деревенский роман (Красотка)-Год выпуска: 2015
    Производитель: Россия, "Топлайн фильм", КТК
    Жанр: Мелодрама
    Продолжительность: 00:45:00
    Cубтитры: Нет-Режиссер: Виталий Бабенко
    В ролях: Антон Макарский, Мария Зыкова, Дмитрий Исаев, Юлия Такшина, Владимир Носик, Вячеслав Гришечкин, Андрей Леонов, Анна Андрусенко, Владимир Яворский, Юлия Жигалина, Юлиана Ромашина (Оррен), Мария Буравлева, Максим Лагашкин, Алла Подчуфарова, Екатерина Вежновец, Алиса Мосина-Описание: Света Бардина (Маруся Зыкова) – красивая, уверенная в себе и амбициозная девушка. Она работает в крупном агрохолдинге, знает все о производстве и переработке молока, правда живых коров видела только на картинках.Света рассчитывает получить повышение и занять должность директора департамента по работе с регионами. Но внезапно узнает, что ее коллега и жених Вадим Шевельков (Дмитрий Исаев) тоже претендует на это место. Директор холдинга принимает неожиданное решение. Он объявляет Бардиной и Шевелькову, что должность достанется тому, кто сможет наладить работу агрокомплекса в Васильково, где недавно при таинственных обстоятельствах пропал менеджер компании. Света вынуждена согласиться – ей необходимо повышение, ведь она должна помогать матери и сестре с двумя детьми, которых она недавно перевезла из родного города в Москву. Так Света и Вадим оказываются в самом сердце российской глубинки. В Васильково упрямая и решительная, но еще неопытная Бардина попадает в непривычную обстановку, где царят свои законы. Деревенские встречают ее неприветливо, менять сложившиеся устои никто не хочет. К тому же Свете предстоит обойти Вадима, который ведет двойную игру и собирается присвоить себе авторство ее идей. Случай сводит Свету со странным ковбоем - работником местной фермы Арсением (Антон Макарский). Он не похож на других деревенских – Арсений хорош собой и совсем не пьет. Света решает нанять его на работу. Но может ли амбициозная горожанка влюбиться в сельского жителя, без денег и перспектив? Света не знает, что на самом деле встретила «принца», который под маской пастуха скрывает свою настоящую личность и прошлое... Арсений же подозревает, что Света совсем не та, за кого себя выдает. Он думает, что Бардину специально прислали, чтобы следить за ним…-Релиз: daboen
    Реклама: Отсутствует
    Все раздачи сериала
    Семпл-Качество: HDTV 1080i
    Формат: TS
    Видео кодек: AVC
    Аудио кодек: MP2
    Видео: MPEG-4 AVC, 1920x1080 (16:9), 25.000 fps, 7 867 Kbps (0.152 bit/pixel)
    Аудио: MP2, 48.0 KHz, 2 ch, 192 Kbps, CBR (Russian)

    MI

    General
    ID : 1 (0x1)
    Complete name : Derevenskiy.roman.02.2014.HDTV.1080i.ts
    Format : MPEG-TS
    File size : 2.63 GiB
    Duration : 44mn 25s
    Overall bit rate mode : Variable
    Overall bit rate : 8 475 Kbps
    Video
    ID : 2911 (0xB5F)
    Menu ID : 1119 (0x45F)
    Format : AVC
    Format/Info : Advanced Video Codec
    Format profile : High@L4
    Format settings, CABAC : Yes
    Format settings, ReFrames : 4 frames
    Codec ID : 27
    Duration : 44mn 25s
    Bit rate : 7 862 Kbps
    Width : 1 920 pixels
    Height : 1 080 pixels
    Display aspect ratio : 16:9
    Frame rate : 25.000 fps
    Color space : YUV
    Chroma subsampling : 4:2:0
    Bit depth : 8 bits
    Scan type : MBAFF
    Scan order : Top Field First
    Bits/(Pixel*Frame) : 0.152
    Stream size : 2.44 GiB (93%)
    Audio
    ID : 2912 (0xB60)
    Menu ID : 1119 (0x45F)
    Format : MPEG Audio
    Format version : Version 1
    Format profile : Layer 2
    Mode : Joint stereo
    Mode extension : Intensity Stereo + MS Stereo
    Codec ID : 3
    Duration : 44mn 25s
    Bit rate mode : Constant
    Bit rate : 192 Kbps
    Channel(s) : 2 channels
    Sampling rate : 48.0 KHz
    Compression mode : Lossy
    Stream size : 61.0 MiB (2%)
    Language : Russian

    Скриншоты

    Скачать .torrent

    Скачать торрент-файл бесплатно и на максимальной скорости!

    Как скачивать? · Что такое торрент? · Рейтинг и ограничения

    !ВНИМАНИЕ!
    Сайт не распространяет и не хранит электронные версии произведений, а занимается лишь лишь предоставлением доступа к создаваемому пользователями каталогу ссылок на торрент-файлы, которые содержат только списки хеш-сумм, убедительная просьба с жалобами обращаться напрямую к пользователю. Файлы для обмена на трекере предоставлены пользователями сайта, и администрация не несёт ответственности за их содержание. Просьба не заливать файлы, защищенные авторскими правами, а также файлы нелегального содержания!


    _________________
    [Профиль] [ЛС]
    Показать сообщения:    
    Ответить на тему

    Текущее время: Сегодня, в 04:15

    Часовой пояс: GMT + 2



    Вы не можете начинать темы
    Вы не можете отвечать на сообщения
    Вы не можете редактировать свои сообщения
    Вы не можете удалять свои сообщения
    Вы не можете голосовать в опросах
    Вы не можете прикреплять файлы к сообщениям
    Вы не можете скачивать файлы