BitTorrentTracker PerecTracker.org
BitTorrentTracker PerecTracker.org
    
Регистрация  ·  Вход
 
 · 
Забыли пароль?

  • Деревенский роман / Серии: 1-16 из 16 (Виталий Бабенко) [2015, Россия, Мелодрама, HDTVRip]

    Ответить на тему
     
    Автор Сообщение

    rechyn

    Создавать темы 15-Янв-2016 15:00

           

    [Цитировать]

    Деревенский романГод выпуска: 2015
    Производитель : Россия, "Топлайн фильм"
    Жанр: Мелодрама
    Год выпуска: 2015
    Продолжительность: 50 мин.
    Cубтитры: нет
    Режиссер: Виталий Бабенко
    В ролях: Антон Макарский, Маруся Зыкова, Дмитрий Исаев, Юлия Такшина, Владимир Носик, Вячеслав Гришечкин, Андрей Леонов, Анна Андрусенко, Владимир Яворский, Юлия Жигалина, Юлиана Ромашина (Оррен), Мария Буравлева, Максим Лагашкин, Алла Подчуфарова, Екатерина Вежновец, Алиса Мосина
    Описание: Света Бардина (Маруся Зыкова) – красивая, уверенная в себе и амбициозная девушка. Она работает в крупном агрохолдинге, знает все о производстве и переработке молока, правда живых коров видела только на картинках.Света рассчитывает получить повышение и занять должность директора департамента по работе с регионами. Но внезапно узнает, что ее коллега и жених Вадим Шевельков (Дмитрий Исаев) тоже претендует на это место. Директор холдинга принимает неожиданное решение. Он объявляет Бардиной и Шевелькову, что должность достанется тому, кто сможет наладить работу агрокомплекса в Васильково, где недавно при таинственных обстоятельствах пропал менеджер компании. Света вынуждена согласиться – ей необходимо повышение, ведь она должна помогать матери и сестре с двумя детьми, которых она недавно перевезла из родного города в Москву. Так Света и Вадим оказываются в самом сердце российской глубинки. В Васильково упрямая и решительная, но еще неопытная Бардина попадает в непривычную обстановку, где царят свои законы. Деревенские встречают ее неприветливо, менять сложившиеся устои никто не хочет. К тому же Свете предстоит обойти Вадима, который ведет двойную игру и собирается присвоить себе авторство ее идей. Случай сводит Свету со странным ковбоем - работником местной фермы Арсением (Антон Макарский). Он не похож на других деревенских – Арсений хорош собой и совсем не пьет. Света решает нанять его на работу. Но может ли амбициозная горожанка влюбиться в сельского жителя, без денег и перспектив? Света не знает, что на самом деле встретила «принца», который под маской пастуха скрывает свою настоящую личность и прошлое... Арсений же подозревает, что Света совсем не та, за кото себя выдает. Он думает, что Бардину специально прислали, чтобы следить за ним…
    Все раздачи сериала
    Сэмпл
    Качество: HDTVRip
    Формат: AVI
    Видео кодек: XviD
    Аудио кодек: AC3
    Видео: 720x400 (1.80:1), 25 fps, XviD build 73 ~1548 kbps avg, 0.22 bit/pixel
    Аудио: 48 kHz, AC3 Dolby Digital, 2/0 (L,R) ch, ~192.00 kbps avg

    MI

    General
    Complete name : Y:\раздачи\Деревенский роман..2015.HDTVRip.RG.Russkie.serialy.&.Files-x.Деревенский роман..2015.HDTVRip.RG.Russkie.serialy.&.Files-x.avi
    Format : AVI
    Format/Info : Audio Video Interleave
    File size : 549 MiB
    Duration : 43mn 49s
    Overall bit rate : 1 752 Kbps
    Writing application : VirtualDubMod 1.5.10.3 | www.virtualdub-fr.org || (build 2550/release)
    Writing library : VirtualDubMod build 2550/release
    Video
    ID : 0
    Format : MPEG-4 Visual
    Format profile : Advanced Simple@L5
    Format settings, BVOP : 1
    Format settings, QPel : No
    Format settings, GMC : No warppoints
    Format settings, Matrix : Custom
    Codec ID : XVID
    Codec ID/Hint : XviD
    Duration : 43mn 49s
    Bit rate : 1 550 Kbps
    Width : 720 pixels
    Height : 400 pixels
    Display aspect ratio : 16:9
    Frame rate : 25.000 fps
    Color space : YUV
    Chroma subsampling : 4:2:0
    Bit depth : 8 bits
    Scan type : Progressive
    Compression mode : Lossy
    Bits/(Pixel*Frame) : 0.215
    Stream size : 486 MiB (88%)
    Writing library : XviD 73
    Audio
    ID : 1
    Format : AC-3
    Format/Info : Audio Coding 3
    Mode extension : CM (complete main)
    Format settings, Endianness : Big
    Codec ID : 2000
    Duration : 43mn 49s
    Bit rate mode : Constant
    Bit rate : 192 Kbps
    Channel(s) : 2 channels
    Channel positions : Front: L R
    Sampling rate : 48.0 KHz
    Compression mode : Lossy
    Stream size : 60.2 MiB (11%)
    Alignment : Split accross interleaves
    Interleave, duration : 40 ms (1.00 video frame)
    Interleave, preload duration : 500 ms

    Скриншоты

    -
    Скачать .torrent

    Скачать торрент-файл бесплатно и на максимальной скорости!

    Как скачивать? · Что такое торрент? · Рейтинг и ограничения

    !ВНИМАНИЕ!
    Сайт не распространяет и не хранит электронные версии произведений, а занимается лишь лишь предоставлением доступа к создаваемому пользователями каталогу ссылок на торрент-файлы, которые содержат только списки хеш-сумм, убедительная просьба с жалобами обращаться напрямую к пользователю. Файлы для обмена на трекере предоставлены пользователями сайта, и администрация не несёт ответственности за их содержание. Просьба не заливать файлы, защищенные авторскими правами, а также файлы нелегального содержания!


    _________________
    [Профиль] [ЛС]
    Показать сообщения:    
    Ответить на тему

    Текущее время: Сегодня, в 05:18

    Часовой пояс: GMT + 2



    Вы не можете начинать темы
    Вы не можете отвечать на сообщения
    Вы не можете редактировать свои сообщения
    Вы не можете удалять свои сообщения
    Вы не можете голосовать в опросах
    Вы не можете прикреплять файлы к сообщениям
    Вы не можете скачивать файлы